Полиция Гавайев / Гавайи 5.0 / Hawaii Five-0 (Сезон: 5 / Серии: 1-11 из 22) (Стив Бойум, Брайан Спайсер, Брэд Тернер, Кристин Мур) [2010 - 2014 г., Боевик, драма, криминал, WEB-DLRip] MVO (LostFilm) [обновляемая]

 

Создавать темы 13-Янв-2015 16:05

Полиция Гавайев / Гавайи 5.0 / Hawaii Five-0
-Производство: США, Kurtzman Orci Paper Products, 101st Street Productions, CBS Productions
Жанр: Боевик, драма, криминал
Год выпуска: 2010-2014 г.
Продолжительность: 11 серий по ~ 00:43:00
Мировая премьера: 20 сентября 2010
Российская премьера: 18 апреля 2011
Перевод: Профессиональный (многоголосый, закадровый)
Озвучка: Студия -Режиссер: Стив Бойум, Брайан Спайсер, Брэд Тернер, Кристин Мур
Сценарий: Алекс Куртцман, Питер М. Ленков, Роберто Орси
Продюсер: Алекс Куртцман, Питер М. Ленков, Роберто Орси
Оператор: Джеймс Л. Картер, Рональд Виктор Гарсия, Алан Казо
Композитор: Кит Пауэр, Брайан Тайлер, Майк МакКреди
Художник: Кит Нили, Гари Фруткофф, Скотт Миэн
Монтаж: Майя Врвило, Родерик Дэвис, Скотт Пауэлл-В ролях: Алекс О’Локлин (Alex O'Loughlin), Скотт Каан (Scott Caan), Дэниэл Дэ Ким (Daniel Dae Kim), Грейс Пак (Grace Park), Маси Ока (Masi Oka), Тайлор Уайли (Taylor Wily), Мишель Борт (Michelle Borth), Брайан Янг (Brian Yang), Тейлор Груббс (Teilor Grubbs), Дэннис Чун (Dennis Chun), Марк Дакаскос (Mark Dacascos), Йен Энтони Дэйл (Ian Anthony Dale), Терри О’Куинн (Terry O'Quinn), Кристин Лати (Christine Lahti)-Описание: Детектив Стив МакГарретт, бывший морской офицер с массой наград, а теперь полицейский, возвращается в Оаху расследовать убийство отца. Он остается на острове, после того, как губернатор штата Гавайи убедил его возглавить новую команду. Команда будет действовать по его правилам, при поддержке губернатора, без бюрократических проволочек, и с полным иммунитетом, все это — чтобы поймать самую крупную «дичь» в городе.
К МакГаррету присоединяется детектив Дэнни «Данно» Уильямс, недавно переведенный из Нью-Джерси полицейский, который предпочел бы небоскребы пляжам, но готов бороться с преступностью, чтобы его 8-летняя дочь чувствовала себя на островах в безопасности; и Чин Хо Келли, бывший детектив полиции Гонолулу, которого ошибочно обвинили в коррупции, и который когда-то был протеже отца МакГаррета. Двоюродная сестра Чина, Коно, прекрасная и бесстрашная уроженка островов, недавно выпустилась из академии, и рвется доказать, что она достойна места в элите департамента. МакГаррет клянется завершить дело отца, а члены нового спецотряда Five-O, может, и грызутся друг с другом, но настроены уничтожить преступность в пятидесятом штате.-Качество видео: WEB-DLRip
Контейнер: AVI
Видео кодек: XviD
Аудио кодек: MP3
Видео: 720x400 (1.80:1), 23.976 fps, XviD build 50 ~1913 kbps avg, 0.28 bit/pixel |LostFilm|
Аудио: Русский; 48 kHz, MPEG Layer 3, 2 ch, ~188.62 kbps avg
Cубтитры: отсутствуют

Список серий

  • Некуда бежать (A'ohe Kahi e Pe'e Ai)
  • Семьянин (Ka Makuakane)
  • Последняя волна (Kanalu Hope Loa)
  • Маляр (Ka No'eau)
  • Наследие (Ho'oilina)
  • Маски сброшены (Ho'oma'ike)
  • Если бы (Ina Paha)
  • Дело рук своих (Ka Hana Malu)
  • Шансы невысоки (Ke Koho Mamao Aku)
  • Разбитые мечты (Wawahi moe'uhane)
  • Краденое (Ua'aihue)

MediaInfo

Общее
Формат : AVI
Формат/Информация : Audio Video Interleave
Размер файла : 666 Мбайт
Продолжительность : 44 м.
Режим общего битрейта : Переменный
Общий поток : 2115 Кбит/сек
Программа кодирования : Nandub v1.0rc2
Библиотека кодирования : Nandub build 1853/release
Видео
Идентификатор : 0
Формат : MPEG-4 Visual
Профиль формата : Advanced [email protected]
Параметр BVOP формата : Нет
Параметр QPel формата : Нет
Параметр GMC формата : Без точки перехода
Параметр матрицы формата : Default (H.263)
Идентификатор кодека : XVID
Идентификатор кодека/Подсказка : XviD
Продолжительность : 44 м.
Битрейт : 1914 Кбит/сек
Ширина : 720 пикселей
Высота : 400 пикселей
Соотношение сторон : 16:9
Частота кадров : 23,976 кадра/сек
Цветовое пространство : YUV
Субдискретизация насыщенности : 4:2:0
Битовая глубина : 8 бит
Тип развёртки : Прогрессивная
Метод сжатия : С потерями
Бит/(Пиксели*Кадры) : 0.277
Размер потока : 603 Мбайт (90%)
Библиотека кодирования : XviD 1.2.1 (UTC 2008-12-04)
Аудио
Идентификатор : 1
Формат : MPEG Audio
Версия формата : Version 1
Профиль формата : Layer 3
Режим : Joint stereo
Расширение режима : MS Stereo
Идентификатор кодека : 55
Идентификатор кодека/Подсказка : MP3
Продолжительность : 44 м.
Вид битрейта : Переменный
Битрейт : 192 Кбит/сек
Каналы : 2 канала
Частота : 48,0 КГц
Метод сжатия : С потерями
Размер потока : 59,4 Мбайт (9%)
Выравнивание : Соединение по промежуткам
Продолжительность промежутка : 24 мс. (0,58 видеокадр)
Время предзагрузки промежутка : 484 мс.
Библиотека кодирования : LAME3.97b
Настройки программы : -m j -V 4 -q 3 -lowpass 18.6 --abr 192

Скриншоты

--

Внимание! Раздача ведётся путём добавления новых серий!

  • Раздача ведётся путём добавления новых серий. При каждом добавлении создётся новый торрент.
  • Чтобы начать докачку новой серии, пользователям необходимо сделать следующее:
    1. остановить скачивание;
    2. удалить старый торрент у себя из клиента (старые серии удалять не надо);
    3. скачать новый торрент и запустить его у себя в клиенте вместо старого, при этом указать клиенту путь в старую папку, куда и должно происходить скачивание новых серий.
  • Ваш клиент при этом должен произвести хеширование (проверку) старой папки (если не производит сам - помогите ему сделать это), и будет докачивать только те серии которых у вас ещё нет. Старые серии при этом не удаляются, а продолжают раздаваться!
  • Eсли вы уже удалили старые серии, то предотвратить повторную закачку старых серий можно, отжав галочку в соответсвующих местах при запуске нового торрента. По возможности, желательно не удалять старые серии как можно дольше, чтобы релизёр не столько продолжал раздавать старые серии, а смог сконцентрироваться на новых.
  • Совет для тех, кто не хочет ждать перехеширования:
    Создайте ещё одну папку рядом с папкой сериала (рядом, а не в ней!!!). Каждую новую серию после удачной загрузки копируйте в новую папку так чтобы ваша основная папка всегда была пуста. Когда ваш новый торрент предложит вам закачать все файлы, выберете только последнюю. Для сидирования же укажите адрес новой папки.

Как закачать отдельный файл

1. Открыть торрент
2. Снять галки с тех файлов торрента, которые мы не хотим закачивать. Оставляем только на нужных нам файлах (файле).
3. Нажать О.К.
В клиенте utorrent
Инструкция
1) Открыть торрент

2) Снять галки с тех файлов торрента, которые мы не хотим закачивать:
* либо вручную, снимая с каждого файла галку (скрин №1)
* либо, нажав кнопку "Снять метки (Select None)", сняв сразу со всех файлов (скрин №2)
№1

№2

Оставляем только на нужных нам файлах (файле).

3)Нажать О.К
Яндекс.Метрика
Рейтинг@Mail.ru