Игра в имитацию / The Imitation Game (Мортен Тильдум / Morten Tyldum) [2014 г., Триллер, Драма, Военный, Биография, DVDScreener] DVO (ColdFilm)

 

Создавать темы 13-Янв-2015 16:05

-Игра в имитацию / The Imitation Game-- Производство: Великобритания, США / Black Bear Pictures, Bristol Automotive
Год выпуска: 2014 г.
Жанр: Триллер, Драма, Военный, Биография
Продолжительность: 01:53:51
Мировая премьера: 29 августа 2014
Российская премьера: 5 февраля 2015
Перевод: Любительский (двухголосый, закадровый) [ColdFilm]
Режиссер: Мортен Тильдум / Morten Tyldum-В ролях: Бенедикт Камбербэтч, Кира Найтли, Мэттью Гуд, Рори Киннер, Аллен Лич, Мэттью Бирд, Чарльз Дэнс, Марк Стронг, Джеймс Норткот, Том Гудман-Хилл-Описание: 1941 год. Британская разведка безуспешно бьется над расшифровкой кода шифровальной машины «Энигма», разработанной немцами. Для достижения результатов наняты лучшие специалисты в области дешифровки, среди которых математик Алан Тьюринг — ученый блестящий, но не от мира сего. Добиться расположения коллег ему поможет Джоан Кларк (Кира Найтли) — единственная девушка, оказавшаяся в мужской команде, работающей над «Энигмой». Они с Аланом даже успеют обручиться, поскольку беспредельно уважают друг друга, но до свадьбы дело не дойдет. Тьюринг не хочет мучить девушку, поскольку не в силах пойти против своей природы: он гей, а геев в Великобритании преследовали по закону.-
Качество видео: DVDScreener
Контейнер: AVI
Видео кодек: XviD
Аудио кодек: AC3
Видео: 720x304 (2.37:1), 29.970 fps, XviD build 50 ~1911 kbps avg, 0.29 bit/pixel
Аудио: 1: 48 kHz, AC3 Dolby Digital, 2/0 (L,R) ch, ~256 kbps
Аудио #2: 2: 44.1 kHz, AC3 Dolby Digital, 2/0 (L,R) ch, ~384 kbps
Cубтитры: отсутствуют

Media Info

Общее
Полное имя : E:\Фильмы\The.Imitation.Game.2014.DVDScr.2100MB.avi
Формат : AVI
Формат/Информация : Audio Video Interleave
Профиль формата : OpenDML
Размер файла : 2,04 Гбайт
Продолжительность : 1 ч. 53 м.
Общий поток : 2559 Кбит/сек
Программа кодирования : VirtualDubMod 1.5.10.2 (build 2540/release)
Библиотека кодирования : VirtualDubMod build 2540/release
Видео
Идентификатор : 0
Формат : MPEG-4 Visual
Профиль формата : Advanced [email protected]
Параметр BVOP формата : 2
Параметр QPel формата : Нет
Параметр GMC формата : Без точки перехода
Параметр матрицы формата : Default (MPEG)
Идентификатор кодека : XVID
Идентификатор кодека/Подсказка : XviD
Продолжительность : 1 ч. 53 м.
Битрейт : 1896 Кбит/сек
Ширина : 720 пикселей
Высота : 304 пикселя
Соотношение сторон : 2,35:1
Частота кадров : 29,970 кадров/сек
Цветовое пространство : YUV
Субдискретизация насыщенности : 4:2:0
Битовая глубина : 8 бит
Тип развёртки : Прогрессивная
Метод сжатия : С потерями
Бит/(Пиксели*Кадры) : 0.289
Размер потока : 1,51 Гбайт (74%)
Библиотека кодирования : XviD 1.2.1 (UTC 2008-12-04)
Аудио #1
Идентификатор : 1
Формат : AC-3
Формат/Информация : Audio Coding 3
Расширение режима : CM (complete main)
Параметр Endianness формата : Big
Идентификатор кодека : 2000
Продолжительность : 1 ч. 53 м.
Вид битрейта : Постоянный
Битрейт : 256 Кбит/сек
Каналы : 2 канала
Расположение каналов : Front: L R
Частота : 48,0 КГц
Битовая глубина : 16 бит
Метод сжатия : С потерями
Размер потока : 208 Мбайт (10%)
Выравнивание : Разделение по промежуткам
Продолжительность промежутка : 33 мс. (1,00 видеокадр)
Время предзагрузки промежутка : 500 мс.
Аудио #2
Идентификатор : 2
Формат : AC-3
Формат/Информация : Audio Coding 3
Расширение режима : CM (complete main)
Параметр Endianness формата : Big
Идентификатор кодека : 2000
Продолжительность : 1 ч. 53 м.
Вид битрейта : Постоянный
Битрейт : 384 Кбит/сек
Каналы : 2 канала
Расположение каналов : Front: L R
Частота : 44,1 КГц
Битовая глубина : 16 бит
Метод сжатия : С потерями
Размер потока : 312 Мбайт (15%)
Выравнивание : Разделение по промежуткам
Продолжительность промежутка : 33 мс. (1,00 видеокадр)
Время предзагрузки промежутка : 500 мс.
Скриншоты
Яндекс.Метрика
Рейтинг@Mail.ru