[ Сегодня на трекере фрилич! Идет свободное скачивание без начисления Download ]

Под Прицелом / Silent Trigger (Рассел Малкэй / Russell Mulcahy) [1996 г., Боевик, триллер, драма, HDRip-AVC] AVO (Карцев, Визгунов) + original (Eng)

 

Создавать темы 13-Янв-2015 16:03

Под Прицелом / Silent Trigger
Год выпуска: 1996
Производство: Канада, Великобритания
Жанр: Боевик, триллер, драма
Продолжительность: 01:33:52
Перевод: Авторский (одноголосый, закадровый) Пётр Карцев
Перевод: Авторский (одноголосый, закадровый) Сергей Визгунов
Оригинальный аудиопоток: английский
Субтитры: отсутствуют
Режиссер: Рассел Малкэй / Russell Mulcahy
В ролях: Дольф Лундгрен, Джина Беллман, Конрад Данн, Кристофер Хейердал, Эмма Стивенс, Александрия Абер, Рейнольд Робинсон, Дэйл Хэйес, Эрин Симс, Джонатан Роберт Рондо
Описание: «Снайпер», суперкомандос, работающий на «Агентство» — законспирированную правительственную организацию, управляемую «Координатором». «Снайпер» начинает сомневаться, всматриваться в глаза и лица своих мишеней.
А его «Контролер», второй член снайперской команды, несмотря на молодость, обладает жесткой хваткой и решительностью наемного убийцы. После того, как первая миссия их снайперской команды закончилась провалом и едва их не погубила, они вновь сталкиваются при выполнении задания для «Агентства», давшего им шанс вернуться в систему.
Их мишень: автомобиль, который должен проехать по скоростному шоссе на рассвете. Им противостоят не только сомнения, призраки и беззащитная мишень. «Координатор» отдал приказ «Контролеру» уничтожить «Снайпера», если тот вновь провалит операцию.
, КиноПоиск
Качество видео: HDRip-AVC
Контейнер: MKV
Видео кодек: H.264
Аудио кодек: AC3
Видео: 1024x432, 23.976 fps, 2955 Kbps, 0.279 Bt/Px
Аудио : AC-3, 192 Kbps, 2 ch, 48.0 KHz Rus Карцев
Аудио : AC-3, 192 Kbps, 2 ch, 48.0 KHz Rusи Визгунов
Аудио : AC-3, 192 Kbps, 2 ch, 48.0 KHz Eng Original

Доп. информация

HDRip сделан из BDRip 1080P найденного в сети, дороги из имеющихся.

Media Info

G:\загрузки\Silent_Trigger.mkv
General
Unique ID : 251649179691039023630991572756296456969 (0xBD51DE7B06F497599745797E83795B09)
Complete name : G:\загрузки\Silent_Trigger.mkv
Format : Matroska
Format version : Version 1
File size : 2.36 GiB
Duration : 1h 33mn
Overall bit rate : 3 603 Kbps
Encoded date : UTC 2015-01-12 05:37:04
Writing application : mkvmerge v2.5.3 ('Boogie') built on Mar 7 2009 15:00:41
Writing library : libebml v0.7.7 + libmatroska v0.8.1
Video #1
ID : 1
Format : AVC
Format/Info : Advanced Video Codec
Format profile : [email protected]
Format settings, CABAC : Yes
Format settings, ReFrames : 12 frames
Codec ID : V_MPEG4/ISO/AVC
Duration : 1h 33mn
Bit rate : 2 955 Kbps
Width : 1 024 pixels
Height : 432 pixels
Display aspect ratio : 2.40:1
Frame rate mode : Constant
Frame rate : 23.976 fps
Color space : YUV
Chroma subsampling : 4:2:0
Bit depth : 8 bits
Scan type : Progressive
Bits/(Pixel*Frame) : 0.279
Stream size : 1.94 GiB (82%)
Writing library : x264 core 130 r2273 b3065e6
Encoding settings : cabac=1 / ref=12 / deblock=1:-3:-3 / analyse=0x3:0x133 / me=umh / subme=11 / psy=1 / psy_rd=1.00:0.15 / mixed_ref=1 / me_range=32 / chroma_me=1 / trellis=2 / 8x8dct=1 / cqm=0 / deadzone=21,11 / fast_pskip=1 / chroma_qp_offset=-3 / threads=6 / lookahead_threads=1 / sliced_threads=0 / nr=0 / decimate=1 / interlaced=0 / bluray_compat=0 / constrained_intra=0 / bframes=8 / b_pyramid=2 / b_adapt=2 / b_bias=0 / direct=1 / weightb=1 / open_gop=0 / weightp=2 / keyint=250 / keyint_min=23 / scenecut=40 / intra_refresh=0 / rc_lookahead=50 / rc=crf / mbtree=1 / crf=17.0 / qcomp=0.60 / qpmin=0 / qpmax=51 / qpstep=4 / ip_ratio=1.40 / aq=1:1.00
Language : English
Default : Yes
Forced : No
Audio #2
ID : 2
Format : AC-3
Format/Info : Audio Coding 3
Mode extension : CM (complete main)
Format settings, Endianness : Big
Codec ID : A_AC3
Duration : 1h 33mn
Bit rate mode : Constant
Bit rate : 192 Kbps
Channel(s) : 2 channels
Channel positions : Front: L R
Sampling rate : 48.0 KHz
Bit depth : 16 bits
Compression mode : Lossy
Stream size : 129 MiB (5%)
Title : AVO Карцев
Language : Russian
Default : Yes
Forced : No
Audio #3
ID : 3
Format : AC-3
Format/Info : Audio Coding 3
Mode extension : CM (complete main)
Format settings, Endianness : Big
Codec ID : A_AC3
Duration : 1h 33mn
Bit rate mode : Constant
Bit rate : 192 Kbps
Channel(s) : 2 channels
Channel positions : Front: L R
Sampling rate : 48.0 KHz
Bit depth : 16 bits
Compression mode : Lossy
Stream size : 129 MiB (5%)
Title : AVO Визгунов
Language : Russian
Default : No
Forced : No
Audio #4
ID : 4
Format : AC-3
Format/Info : Audio Coding 3
Mode extension : CM (complete main)
Format settings, Endianness : Big
Codec ID : A_AC3
Duration : 1h 33mn
Bit rate mode : Constant
Bit rate : 192 Kbps
Channel(s) : 2 channels
Channel positions : Front: L R
Sampling rate : 48.0 KHz
Bit depth : 16 bits
Compression mode : Lossy
Stream size : 129 MiB (5%)
Language : English
Default : No
Forced : No

log x.264

x264 [info]: frame I:1224  Avg QP:14.54  size: 91253
x264 [info]: frame P:30656 Avg QP:17.51 size: 29720
x264 [info]: frame B:103170 Avg QP:20.09 size: 10724
x264 [info]: consecutive B-frames: 2.0% 2.0% 6.4% 36.5% 20.5% 27.3% 3.0% 1.4% 1.0%
x264 [info]: mb I I16..4: 20.3% 54.3% 25.4%
x264 [info]: mb P I16..4: 1.2% 21.3% 2.3% P16..4: 24.2% 30.5% 12.0% 3.0% 0.5% skip: 5.1%
x264 [info]: mb B I16..4: 0.1% 3.5% 0.2% B16..8: 33.7% 20.1% 3.4% direct: 8.9% skip:30.0% L0:39.0% L1:44.4% BI:16.6%
x264 [info]: 8x8 transform intra:84.3% inter:53.8%
x264 [info]: coded y,uvDC,uvAC intra: 93.8% 86.1% 63.4% inter: 33.9% 30.1% 6.5%
x264 [info]: i16 v,h,dc,p: 29% 9% 22% 40%
x264 [info]: i8 v,h,dc,ddl,ddr,vr,hd,vl,hu: 9% 8% 9% 10% 13% 12% 13% 12% 14%
x264 [info]: i4 v,h,dc,ddl,ddr,vr,hd,vl,hu: 9% 8% 6% 9% 15% 13% 14% 11% 14%
x264 [info]: i8c dc,h,v,p: 39% 24% 19% 19%
x264 [info]: Weighted P-Frames: Y:6.5% UV:4.2%
x264 [info]: ref P L0: 44.9% 10.1% 20.6% 6.0% 5.4% 3.1% 3.1% 1.5% 1.6% 1.1% 1.3% 1.0% 0.2% 0.0%
x264 [info]: ref B L0: 83.1% 9.0% 2.9% 1.6% 1.0% 0.8% 0.6% 0.4% 0.3% 0.2% 0.1%
x264 [info]: ref B L1: 96.0% 4.0%
x264 [info]: kb/s:3024.05
x264 [total]: encoded 135050 frames, 6.83 fps, 3024.05 kb/s

Скриншоты

Яндекс.Метрика
Рейтинг@Mail.ru