Звёздные войны: Повстанцы / Star Wars Rebels / Сезон 1 / Cерии: 9 из 16 (Стюарт Ли / Steward Lee, ...) [2014 г., мультфильм, фантастика, фэнтези, боевик, приключения, ..., WEB-DLRip] MVO [LostFilm] [обновляемая]

 

Создавать темы 13-Янв-2015 16:02

Звёздные войны: Повстанцы
Star Wars Rebels
- Русское название: Звёздные войны: Повстанцы
Оригинальное название: Star Wars Rebels
Страна: США
Год выпуска: 2014
Жанр: мультфильм, фантастика, фэнтези, боевик, приключения, ...-Премьера (мир): 3 октября 2014, ...
Релиз на DVD: 27 января 2015, «Уолт Дисней Компани СНГ», ...-Озвучка: Студия
Перевод: Многоголосый закадровый, профессиональный-Режиссер: Стюарт Ли / Steward Lee, эйв Филони / Dave Filoni, Стивен Дж. Ли / Steven G. Lee, ...
В главных ролях: Ванесса Маршалл, Фредди Принц мл., Стивен Блум, Тейлор Грэй, Тия Сиркар, Дэвид Ойелоуо, Кит Шарабайка, Грег Уайзман, Грег Эллис, Фил ЛаМарр, ...-Описание фильма:
Анимационный телесериал, действие которого разворачивается в период между фильмами «Звёздные войны. Эпизод III: Месть ситхов» и «Звёздные войны. Эпизод IV: Новая надежда». Сериал будет рассказывать о разномастной группе повстанцев, экипаже космического корабля «Призрак», и их борьбе против Галактической Империи.-Сезон: 1
Серии: 9 из 16 серий
Продолжительность: ~ 00:43:00 мин серия-Качество видео: WEB-DLRip
Формат: AVI
Видеокодек: XviD
Аудиокодек: Mp3
Видео: MPEG-4 Visual at 1715 Кбит/сек: 720 x 400 (1.800) at 23.976 fps, 0.25 Бит/Пиксели
Аудио Rus: MPEG Audio at 192 Кбит/сек: 2 канала, 48,0 КГц |LostFilm|
- -

Список серий:

  • Искры мятежа (Spark of Rebellion)
  • Дроиды в беде (Droids in Distress)
  • Полёт истребителя (Fighter Flight)
  • Возвращение старых мастеров (Rise of the Old Masters)
  • Нарушая строй (Breaking Ranks)
  • Из темноты (Out of Darkness)
  • День Империи (Empire Day)
  • Силы прибывают (Gathering Forces)
  • Путь джедая (Path of the Jedi)
-

MediaInfo:

Общее
Полное имя                               : E:\_Сериалы\Звёздные войны Повстанцы\Star Wars Rebels.S01.LostFilm\Star.Wars.Rebels.S01E01.rus.LostFilm.TV.avi
Формат                                   : AVI
Формат/Информация                        : Audio Video Interleave
Размер файла                             : 596 Мбайт
Продолжительность                        : 43 м.
Режим общего битрейта                    : Переменный
Общий поток                              : 1916 Кбит/сек
Программа кодирования                    : Nandub v1.0rc2
Библиотека кодирования                   : Nandub build 1853/release
Видео
Идентификатор                            : 0
Формат                                   : MPEG-4 Visual
Профиль формата                          : Advanced [email protected]
Параметр BVOP формата                    : Нет
Параметр QPel формата                    : Нет
Параметр GMC формата                     : Без точки перехода
Параметр матрицы формата                 : Default (H.263)
Идентификатор кодека                     : XVID
Идентификатор кодека/Подсказка           : XviD
Продолжительность                        : 43 м.
Битрейт                                  : 1715 Кбит/сек
Ширина                                   : 720 пикселей
Высота                                   : 400 пикселей
Соотношение сторон                       : 16:9
Частота кадров                           : 23,976 кадра/сек
Цветовое пространство                    : YUV
Субдискретизация насыщенности            : 4:2:0
Битовая глубина                          : 8 бит
Тип развёртки                            : Прогрессивная
Метод сжатия                             : С потерями
Бит/(Пиксели*Кадры)                      : 0.248
Размер потока                            : 534 Мбайт (89%)
Библиотека кодирования                   : XviD 1.2.1 (UTC 2008-12-04)
Аудио
Идентификатор                            : 1
Формат                                   : MPEG Audio
Версия формата                           : Version 1
Профиль формата                          : Layer 3
Режим                                    : Joint stereo
Расширение режима                        : MS Stereo
Идентификатор кодека                     : 55
Идентификатор кодека/Подсказка           : MP3
Продолжительность                        : 43 м.
Вид битрейта                             : Переменный
Битрейт                                  : 192 Кбит/сек
Каналы                                   : 2 канала
Частота                                  : 48,0 КГц
Метод сжатия                             : С потерями
Размер потока                            : 58,7 Мбайт (10%)
Выравнивание                             : Соединение по промежуткам
Продолжительность промежутка             : 24  мс. (0,58 видеокадр)
Время предзагрузки промежутка            : 474  мс.
Библиотека кодирования                   : LAME3.97b
Настройки программы                      : -m j -V 4 -q 3 -lowpass 18.6 --abr 192
-

Скриншот c названием фильма

-Скриншоты:
-

Еще

-

Внимание! Раздача ведётся путём добавления новых серий!

Раздача ведётся путём добавления новых серий; при каждом добавлении создаётся новый торрент.
Чтобы начать докачку новой серии, пользователям необходимо сделать следующее:
1. остановить скачивание,
2. удалить старый торрент у себя из клиента (старые серии удалять не надо),
3. скачать новый торрент и запустить его у себя в клиенте вместо старого, при этом указать клиенту путь в старую папку, куда и должно происходить скачивание новых серий.
Ваш клиент при этом должен произвести хеширование (проверку) старой папки (если не производит сам - помогите ему сделать это), и будет докачивать только те серии которых у вас ещё нет. Старые серии при этом не удаляются, а продолжают раздаваться!
Eсли вы уже удалили старые серии, то предотвратить повторную закачку старых серий можно, отжав галочку в соответствующих местах при запуске нового торрента. По возможности, желательно не удалять старые серии как можно дольше, чтобы релизёр не столько продолжал раздавать старые серии, а смог сконцентрироваться на новых.
Совет для тех, кто не хочет ждать перехеширования:
Создайте ещё одну папку рядом с папкой сериала (рядом, а не в ней!!!). Каждую новую серию после удачной загрузки копируйте в новую папку так чтобы ваша основная папка всегда была пуста. Когда ваш новый торрент предложит вам закачать все файлы, выберете только последнюю. Для сидирования же укажите адрес новой папки.
Как закачать отдельный файл из торрента или докачать ранее пропущенные файлы торрента!
-

Как закачать отдельный файл

1. Открыть торрент
2. Снять галки с тех файлов торрента, которые мы не хотим закачивать. Оставляем только на нужных нам файлах (файле).
3. Нажать О.К.
В клиенте utorrent
Инструкция
1) Открыть торрент

2) Снять галки с тех файлов торрента, которые мы не хотим закачивать:
* либо вручную, снимая с каждого файла галку( скрин №1)
* либо, нажав кнопку "Снять метки (Select None)", сняв сразу со всех файлов(скрин №2)
№1

№2

Оставляем только на нужных нам файлах (файле).

3)Нажать О.К
-Добавлена девятая серия первого сезонаРаботаю за
Яндекс.Метрика
Рейтинг@Mail.ru