[ Сегодня на трекере фрилич! Идет свободное скачивание без начисления Download ]

Без видимых причин (Евгений Татарский) [1981 г., детектив, DVB]

 

Создавать темы 13-Янв-2015 16:00

-Без видимых причин-- Производство: СССР. Ленфильм
Режиссер: Евгений Татарский
Жанр: детектив
Год выпуска: 1981 г.
Продолжительность: 01:16:45
В ролях: Э. Романов, И. Алфёрова, Л. Прыгунов, Г. Дрозд, М. Кононов, Е. Киндинов, И. Дмитриев, Н. Лавров, Н. Струков, С. Крылов, В. Шевельков, Э. Шварцберг, Е. Артемьев, Т. Жаманкулов, Г. Штиль, В. Смоляков-Описание: 1921 год. В провинциальном сибирском городке произошли три, казалось бы, несвязанных друг с другом страшных события. Но чекист Камчатов убежден в существовании связей между убийствами.-Качество видео: DVB
Контейнер: AVI
Видео кодек: XviD
Аудио кодек: MP3
Видео: 688x576; 1043 kbps; 25 fps; 0.105 bit/pixel
Аудио: 1536 kbps; 2 ch; 48 kHz
Cубтитры: отсутствуют

Media Info

General
Complete name : D:\Torrent\Bez_vidimih_prichin_[Pirat.ca].torrent.avi
Format : AVI
Format/Info : Audio Video Interleave
File size : 1.39 GiB
Duration : 1h 16mn
Overall bit rate : 2 588 Kbps
Writing library : VirtualDub build 35390/release
Video
ID : 0
Format : MPEG-4 Visual
Format profile : Advanced [email protected]
Format settings, BVOP : 2
Format settings, QPel : No
Format settings, GMC : No warppoints
Format settings, Matrix : Default (H.263)
Muxing mode : Packed bitstream
Codec ID : XVID
Codec ID/Hint : XviD
Duration : 1h 16mn
Bit rate : 1 043 Kbps
Width : 688 pixels
Height : 576 pixels
Display aspect ratio : 1.194
Frame rate : 25.000 fps
Color space : YUV
Chroma subsampling : 4:2:0
Bit depth : 8 bits
Scan type : Progressive
Compression mode : Lossy
Bits/(Pixel*Frame) : 0.105
Stream size : 572 MiB (40%)
Writing library : XviD 73
Audio
ID : 1
Format : PCM
Format settings, Endianness : Little
Format settings, Sign : Signed
Codec ID : 1
Duration : 1h 16mn
Bit rate mode : Constant
Bit rate : 1 536 Kbps
Channel(s) : 2 channels
Sampling rate : 48.0 KHz
Bit depth : 16 bits
Stream size : 843 MiB (59%)
Alignment : Aligned on interleaves
Interleave, duration : 40 ms (1.00 video frame)
Interleave, preload duratio : 500 ms

Скриншоты

Раздача

Раздача с 14.00 до 2.30 (время московское)
Яндекс.Метрика
Рейтинг@Mail.ru