[ Сегодня на трекере фрилич! Идет свободное скачивание без начисления Download ]

Игра в имитацию / The Imitation Game (Мортен Тильдум / Morten Tyldum) [2014 г., триллер, драма, военный, биография, DVDScreener] DVO (ColdFilm)

 

Создавать темы 13-Янв-2015 15:50

-Игра в имитацию / The Imitation Game-«Основано на невероятной, но реальной истории»- Производство: Великобритания, США, Black Bear Pictures, Bristol Automotive
Год выпуска: 2014 г.
Жанр: триллер, драма, военный, биография
Продолжительность: 01:53:51
Мировая премьера: 29 августа 2014
Российская премьера: 5 февраля 2015, «Централ Партнершип Classic»
Перевод: Любительский (двухголосый, закадровый) [ColdFilm]-Режиссер: Мортен Тильдум / Morten Tyldum
В ролях: Бенедикт Камбербэтч, Кира Найтли, Мэттью Гуд, Рори Киннер, Аллен Лич, Мэттью Бирд, Чарльз Дэнс, Марк Стронг, Джеймс Норткот, Том Гудман-Хилл-Описание: Английский математик и логик Алан Тьюринг помогает взломать код Enigma во время Второй мировой войны.- -Качество видео: DVDScreener
Контейнер: AVI
Видео кодек: XviD
Аудио кодек: AC3
Видео: 720x304 (2.37:1), 29.970 fps, XviD MPEG-4 ~1491 kbps avg, 0.23 bit/pixel
Аудио: 48 kHz, AC3 Dolby Digital, 2/0 (L,R) ch, ~224 kbps
Cубтитры: отсутствуют

Награды

Media Info

General
Complete name : D:\Igra.v.imitaciyu.2014.DVDScr.avi
Format : AVI
Format/Info : Audio Video Interleave
File size : 1.37 GiB
Duration : 1h 53mn
Overall bit rate : 1 727 Kbps
Writing application : VirtualDubMod 1.5.10.2 (build 2540/release)
Writing library : VirtualDubMod build 2540/release
Video
ID : 0
Format : MPEG-4 Visual
Format profile : Advanced [email protected]
Format settings, BVOP : 2
Format settings, QPel : No
Format settings, GMC : No warppoints
Format settings, Matrix : Default (H.263)
Muxing mode : Packed bitstream
Codec ID : XVID
Codec ID/Hint : XviD
Duration : 1h 53mn
Bit rate : 1 492 Kbps
Width : 720 pixels
Height : 304 pixels
Display aspect ratio : 2.35:1
Frame rate : 29.970 fps
Color space : YUV
Chroma subsampling : 4:2:0
Bit depth : 8 bits
Scan type : Progressive
Compression mode : Lossy
Bits/(Pixel*Frame) : 0.227
Stream size : 1.19 GiB (86%)
Writing library : XviD 64
Audio
ID : 1
Format : AC-3
Format/Info : Audio Coding 3
Mode extension : CM (complete main)
Format settings, Endianness : Big
Codec ID : 2000
Duration : 1h 53mn
Bit rate mode : Constant
Bit rate : 224 Kbps
Channel(s) : 2 channels
Channel positions : Front: L R
Sampling rate : 48.0 KHz
Bit depth : 16 bits
Compression mode : Lossy
Stream size : 182 MiB (13%)
Alignment : Split accross interleaves
Interleave, duration : 33 ms (1.00 video frame)
Interleave, preload duration : 500 ms

Скриншоты

Яндекс.Метрика
Рейтинг@Mail.ru