Теория Большого Взрыва / The Big Bang Theory / Сезон: 8 / Серии: 1-12 (24) (Марк Сендроуски / Mark Cendrowski, ...) [2014-2015 гг., ситуационная комедия, WEB-DL, 1080p] VO (Кураж-Бамбей) + Original( Eng) + Sub (Rus, Eng)[обновляемая]

 

Создавать темы 13-Янв-2015 15:47

-Теория Большого Взрыва / The Big Bang Theory
(8 сезон)
-- Производство: США | CBS
Жанр: ситуационная комедия
Год выпуска: 2014 - 2015 гг.
Продолжительность: 12х ~00:21:00
Перевод: Профессиональный (одноголосый, закадровый) [Кураж-Бамбей]
Оригинальный аудиопоток: английский
Режиссер: Марк Сендроуски / Mark Cendrowski, Питер Чакос / Peter Chakos-В ролях: Джим Парсонс / Jim Parsons (Sheldon), Джонни Галекки / Johnny Galecki (Leonard), Кейли Куоко / Kaley Cuoco (Penny), Саймон Хельберг / Simon Helberg (Howard Wolowitz), Кунал Найяр / Kunal Nayyar (Rajesh Koothrappali)-Описание: Два блестящих физика, Леонард и Шелдон, «великие умы», которые понимают, как «работает вселенная». Но их гениальность ничуть не помогает им общаться с людьми, особенно с женщинами. Всё начинает меняться, когда напротив них поселяется красавица Пенни.
Когда Леонард и Шелдон встречают Пенни, Леонард сразу же начинает интересоваться ею. Он видит в общении с Пенни огромную перспективу, вплоть до любви, однако Шелдон понимает, что мечтам его друга не суждено сбыться.
Стоит также отметить пару странных друзей этих физиков: Воловиц, который любит употреблять фразы на разных языках, включая русский, и Раджеш Кутрапали, теряющий дар речи при виде женщин.
- - -Качество видео: WEB-DL
Контейнер: MKV
Стандарт разрешения: 1080p
Видео кодек: H.264/AVC
Аудио кодек: AC3
Видео: 1916x1076, 23.976 fps, ~5000 Kbps avg
Аудио: (RUS) 48.0 KHz, 6 ch (Front: L C R, Side: L R, LFE), ~384 Kbps avg
Аудио #2: (ENG) 48.0 kHz, 6 ch (Front: L C R, Side: L R, LFE), ~384 Kbps avg
Cубтитры: Russian (N-Team), Russian (666-Team), English

Список серий

Episode 01: The Locomotion Interruption / Конец путешествия по железной дороге
Episode 02: The Junior Professor Solution / Повышение до младшего профессора
Episode 03: The First Pitch Insufficiency / Проблема первого броска
Episode 04: The Hook-Up Reverberation / Постельные реверберации
Episode 05: The Focus Attenuation / Ослабление концентрации
Episode 06: The Expedition Approximation / Имитация экспедиции
Episode 07: The Misinterpretation Agitation
Episode 08: The Prom Equilvalency
Episode 09: The Septum Deviation
Episode 10: The Champagne Reflection
Episode 11: The Clean Room Infiltration
Episode 12: The Space Probe Disintegration

Episode 13:
Episode 14:
Episode 15:
Episode 16:
Episode 17:
Episode 18:
Episode 19:
Episode 20:
Episode 21:
Episode 22:
Episode 23:
Episode 24:

Media Info

General
Complete name                    : X:\Uploads\Pirat.Ca\The Big Bang Theory - Season 8 [1080p.WEB-DL.Rus.Eng]\The.Big.Bang.Theory.S08E01.1080p.WEB-DL.Rus.Eng.HDCLUB.mkv
Format                           : Matroska
File size                        : 883 MiB
Duration                         : 21mn 13s
Overall bit rate                 : 5 813 Kbps
Movie name                       : The Big Bang Theory 8x01 (2013) - Release for HDCLUB
Encoded date                     : UTC 2014-09-26 22:00:16
Writing application              : mkvmerge v7.1.0 ('Good Love') 64bit built on Jul 27 2014 13:06:55
Writing library                  : libebml v1.3.0 + libmatroska v1.4.1
Cover                            : Yes / Yes / Yes / Yes
Video
ID                               : 1
Format                           : AVC
Format/Info                      : Advanced Video Codec
Format profile                   : [email protected]
Format settings, CABAC           : Yes
Format settings, ReFrames        : 4 frames
Format settings, GOP             : M=1, N=28
Muxing mode                      : Container [email protected]
Codec ID                         : V_MPEG4/ISO/AVC
Duration                         : 21mn 13s
Bit rate mode                    : Variable
Bit rate                         : 4 930 Kbps
Width                            : 1 916 pixels
Height                           : 1 076 pixels
Display aspect ratio             : 16:9
Frame rate                       : 23.976 fps
Color space                      : YUV
Chroma subsampling               : 4:2:0
Bit depth                        : 8 bits
Scan type                        : Progressive
Bits/(Pixel*Frame)               : 0.100
Stream size                      : 748 MiB (85%)
Title                            : The Big Bang Theory 8x01: The Locomotion Interruption / Остановка передвижения - Release for HDCLUB
Language                         : English
Color primaries                  : BT.709-5, BT.1361, IEC 61966-2-4, SMPTE RP177
Transfer characteristics         : BT.709-5, BT.1361
Matrix coefficients              : BT.709-5, BT.1361, IEC 61966-2-4 709, SMPTE RP177
Audio #1
ID                               : 2
Format                           : AC-3
Format/Info                      : Audio Coding 3
Mode extension                   : CM (complete main)
Codec ID                         : A_AC3
Duration                         : 21mn 13s
Bit rate mode                    : Constant
Bit rate                         : 384 Kbps
Channel(s)                       : 6 channels
Channel positions                : Front: L C R, Side: L R, LFE
Sampling rate                    : 48.0 KHz
Bit depth                        : 16 bits
Stream size                      : 58.3 MiB (7%)
Language                         : Russian
Audio #2
ID                               : 3
Format                           : AC-3
Format/Info                      : Audio Coding 3
Mode extension                   : CM (complete main)
Codec ID                         : A_AC3
Duration                         : 21mn 13s
Bit rate mode                    : Constant
Bit rate                         : 384 Kbps
Channel(s)                       : 6 channels
Channel positions                : Front: L C R, Side: L R, LFE
Sampling rate                    : 48.0 KHz
Bit depth                        : 16 bits
Stream size                      : 58.3 MiB (7%)
Language                         : English
Text #1
ID                               : 4
Format                           : UTF-8
Codec ID                         : S_TEXT/UTF8
Codec ID/Info                    : UTF-8 Plain Text
Title                            : N-Team
Language                         : Russian
Text #2
ID                               : 5
Format                           : UTF-8
Codec ID                         : S_TEXT/UTF8
Codec ID/Info                    : UTF-8 Plain Text
Title                            : 666-Team
Language                         : Russian
Text #3
ID                               : 6
Format                           : UTF-8
Codec ID                         : S_TEXT/UTF8
Codec ID/Info                    : UTF-8 Plain Text
Language                         : English

Скриншоты

Внимание! Раздача ведётся путём добавления новых серий!

при каждом добавлении создётся новый торрент. Чтобы начать докачку новой серии, пользователям необходимо сделать следующее:
(1) остановить скачивание,
(2) удалить старый торрент у себя из клиента (старые серии удалять не надо),
(3) скачать новый торрент и запустить его у себя в клиенте, при этом указать клиенту путь в старую папку куда и должно происходить скачивание новых серий.
Ваш клиент при этом должен произвести хеширование (проверку) старой папки и будет докачивать только те серии которых у вас ещё нет. Старые серии при этом не удаляются, а продолжают раздаваться!
Eсли вы уже удалили старые серии, то предотвратить повторную закачку старых серий можно, отжав галочку в соответствующих местах при запуске нового торрента. (по возможности, желательно не удалять старые серии как можно дольше чтобы релизёр не столько продолжал раздавать старые серии, а смог сконцентрироваться на новых)
Яндекс.Метрика
Рейтинг@Mail.ru