Шанхайский полдень / Shanghai Noon (Том Дей / Tom Dey) [2000 г., Боевик, комедия, приключения, вестерн, BDRip-AVC] AVO (Гаврилов, Живов, Дольский) + MVO (Рен тв, ТНТ, Россия) + DVO (R5)

 

Создавать темы 13-Янв-2015 15:45

Шанхайский полдень / Shanghai Noon
Год выпуска: 2000
Производство: США, Гонконг, Jackie Chan Films Limited, Roger Birnbaum Productions
Жанр: Боевик, комедия, приключения, вестерн
Продолжительность: 01:50:17
Перевод: Авторский (одноголосый, закадровый) Гаврилов, Живов, Дольский
Перевод 2: Профессиональный (многоголосый, закадровый) Рен тв, ТНТ, Россия
Перевод 3: Профессиональный (двухголосый, закадровый) R5
Режиссер: Том Дей / Tom Dey
В ролях: Джеки Чан, Оуэн Уилсон, Люси Лью, Брэндон Мэрилл, Роджер Йуан, Ксандер Беркли, Ю Рон Гуан, Я Хи Куи, Эрик Чен, Джейсон Коннери, Уолтон Гоггинс, Эдриан Дорваль, Рафаэль Баэс, Стэйси Грант, Кейт Лайбен, Генри О, Расселл Баджер, Саймон Бэйкер, Сэм Саймон, Алан С. Петерсон, Рэд Дейли, Ли Джей Бэмберри, Стивен Страхан, Тим Кеттинг, Рик Эш, Валери Планше, Том Хитон, Джеймс Бэйкер, Джим Шилд, Майк Митчелл, Шэйн Уайлер, Бен Сэлтер, Терри Кинг, Мишель Фансетт, Джойс Дулиттл, Рэнди Бёрч, Эндрю Криванек, Кристофер Хант, Джоди Томпсон, Элиза Мёрбах, Кендалл Саундерс
Описание: Когда прекрасную китайскую принцессу похищают, Император отправляет на Дикий Запад троих самых верных и искусных телохранителей. Чон Ванг, естественно, не оказывается в их числе. Но тайными путями ему всё-таки удаётся попасть в воинственную делегацию и оказаться в самом сердце Америки и непредсказуемых событий. Вместе со случайным напарником китайский телохранитель попадает во всевозможные переделки; между делом, он помогает племени Сиу, выкуривает трубку мира и тут же оказывается на тропе войны, по которой пробегают его многочисленные враги.
Сэмпл ,
Качество видео: BDRip-AVC
Контейнер: MKV
Видео кодек: H.264
Аудио кодек: AC3
Видео: 4 277 Kbps, 1040*442 pixels, 2.35:1, 23.976 fps
Аудио : AC3, 448 Kbps, 6 channels, 48.0 KHz, 16 bits - Гаврилов
Аудио #2: AC3, 224 Kbps, 2 channels, 48.0 KHz, 16 bits - Живов
Аудио #3: AC3, 192 Kbps, 2 channels, 48.0 KHz, 16 bits - Дольский
Аудио #4: AC3, 448 Kbps, 6 channels, 48.0 KHz, 16 bits - Рен тв, ТНТ, Россия
Аудио #5: AC3, 448 Kbps, 6 channels, 48.0 KHz, 16 bits - R5

Media Info

C:\Users\leha\Desktop\Новая папка (4)\Шанхайский полдень.BDRip-AVC.2000.mkv
General
Unique ID : 182765779586862136372532019563279137136 (0x897F68A540C84364B20B98C8CB1FB970)
Complete name : C:\Users\leha\Desktop\Новая папка (4)\Шанхайский полдень.BDRip-AVC.2000.mkv
Format : Matroska
Format version : Version 4 / Version 2
File size : 4.66 GiB
Duration : 1h 50mn
Overall bit rate : 6 035 Kbps
Encoded date : UTC 2015-01-12 16:11:41
Writing application : mkvmerge v6.1.0 ('Old Devil') built on Mar 4 2013 09:10:42
Writing library : libebml v1.3.0 + libmatroska v1.4.0
Video #1
ID : 1
Format : AVC
Format/Info : Advanced Video Codec
Format profile : [email protected]
Format settings, CABAC : Yes
Format settings, ReFrames : 16 frames
Codec ID : V_MPEG4/ISO/AVC
Duration : 1h 50mn
Bit rate : 4 277 Kbps
Width : 1 040 pixels
Height : 442 pixels
Display aspect ratio : 2.35:1
Frame rate : 23.976 fps
Color space : YUV
Chroma subsampling : 4:2:0
Bit depth : 8 bits
Scan type : Progressive
Bits/(Pixel*Frame) : 0.388
Stream size : 3.21 GiB (69%)
Writing library : x264 core 130 r2273 b3065e6
Encoding settings : cabac=1 / ref=16 / deblock=1:-1:-1 / analyse=0x3:0x133 / me=umh / subme=10 / psy=1 / psy_rd=1.00:0.15 / mixed_ref=1 / me_range=32 / chroma_me=1 / trellis=2 / 8x8dct=1 / cqm=0 / deadzone=21,11 / fast_pskip=0 / chroma_qp_offset=-3 / threads=12 / lookahead_threads=2 / sliced_threads=0 / nr=0 / decimate=0 / interlaced=0 / bluray_compat=0 / constrained_intra=0 / bframes=8 / b_pyramid=2 / b_adapt=2 / b_bias=0 / direct=3 / weightb=1 / open_gop=0 / weightp=2 / keyint=250 / keyint_min=23 / scenecut=40 / intra_refresh=0 / rc=2pass / mbtree=0 / bitrate=4277 / ratetol=1.0 / qcomp=0.60 / qpmin=0 / qpmax=69 / qpstep=4 / cplxblur=20.0 / qblur=0.5 / ip_ratio=1.40 / pb_ratio=1.30 / aq=1:1.00
Audio #2
ID : 2
Format : AC-3
Format/Info : Audio Coding 3
Mode extension : CM (complete main)
Codec ID : A_AC3
Duration : 1h 50mn
Bit rate mode : Constant
Bit rate : 448 Kbps
Channel(s) : 6 channels
Channel positions : Front: L C R, Side: L R, LFE
Sampling rate : 48.0 KHz
Bit depth : 16 bits
Compression mode : Lossy
Stream size : 354 MiB (7%)
Title : Гаврилов
Audio #3
ID : 3
Format : AC-3
Format/Info : Audio Coding 3
Mode extension : CM (complete main)
Codec ID : A_AC3
Duration : 1h 50mn
Bit rate mode : Constant
Bit rate : 224 Kbps
Channel(s) : 2 channels
Channel positions : Front: L R
Sampling rate : 48.0 KHz
Bit depth : 16 bits
Compression mode : Lossy
Stream size : 177 MiB (4%)
Title : Живов
Audio #4
ID : 4
Format : AC-3
Format/Info : Audio Coding 3
Mode extension : CM (complete main)
Codec ID : A_AC3
Duration : 1h 50mn
Bit rate mode : Constant
Bit rate : 192 Kbps
Channel(s) : 2 channels
Channel positions : Front: L R
Sampling rate : 48.0 KHz
Bit depth : 16 bits
Compression mode : Lossy
Stream size : 152 MiB (3%)
Title : Дольский
Audio #5
ID : 5
Format : AC-3
Format/Info : Audio Coding 3
Mode extension : CM (complete main)
Codec ID : A_AC3
Duration : 1h 50mn
Bit rate mode : Constant
Bit rate : 448 Kbps
Channel(s) : 6 channels
Channel positions : Front: L C R, Side: L R, LFE
Sampling rate : 48.0 KHz
Bit depth : 16 bits
Compression mode : Lossy
Stream size : 354 MiB (7%)
Title : многоголосый, Рен тв, ТНТ, Россия
Audio #6
ID : 6
Format : AC-3
Format/Info : Audio Coding 3
Mode extension : CM (complete main)
Codec ID : A_AC3
Duration : 1h 50mn
Bit rate mode : Constant
Bit rate : 448 Kbps
Channel(s) : 6 channels
Channel positions : Front: L C R, Side: L R, LFE
Sampling rate : 48.0 KHz
Bit depth : 16 bits
Compression mode : Lossy
Stream size : 354 MiB (7%)
Title : двухголосый, R5

log x.264

x264 [info]: frame I:1388  Avg QP:17.90  size: 93467
x264 [info]: frame P:36864 Avg QP:20.41 size: 39071
x264 [info]: frame B:120677 Avg QP:22.26 size: 16345
x264 [info]: consecutive B-frames: 2.8% 3.7% 9.3% 24.2% 19.0% 30.5% 5.4% 2.3% 2.7%
x264 [info]: mb I I16..4: 22.2% 51.9% 25.9%
x264 [info]: mb P I16..4: 2.5% 21.2% 2.8% P16..4: 31.7% 21.8% 14.4% 0.9% 0.3% skip: 4.4%
x264 [info]: mb B I16..4: 0.2% 3.0% 0.4% B16..8: 40.2% 14.6% 5.2% direct:11.5% skip:25.0% L0:43.8% L1:41.4% BI:14.7%
x264 [info]: 8x8 transform intra:78.3% inter:56.0%
x264 [info]: direct mvs spatial:97.9% temporal:2.1%
x264 [info]: coded y,uvDC,uvAC intra: 93.3% 90.1% 71.8% inter: 43.6% 42.4% 19.0%
x264 [info]: i16 v,h,dc,p: 30% 7% 28% 35%
x264 [info]: i8 v,h,dc,ddl,ddr,vr,hd,vl,hu: 10% 7% 13% 9% 13% 13% 12% 12% 12%
x264 [info]: i4 v,h,dc,ddl,ddr,vr,hd,vl,hu: 12% 6% 5% 9% 15% 15% 13% 12% 13%
x264 [info]: i8c dc,h,v,p: 47% 19% 17% 17%
x264 [info]: Weighted P-Frames: Y:13.8% UV:8.1%
x264 [info]: ref P L0: 38.9% 12.6% 18.6% 6.5% 5.8% 3.5% 3.6% 1.8% 1.9% 1.3% 1.4% 1.0% 1.1% 0.8% 0.9% 0.6%
x264 [info]: ref B L0: 66.5% 13.2% 6.1% 3.5% 2.4% 2.1% 1.5% 1.0% 0.8% 0.7% 0.6% 0.6% 0.5% 0.3% 0.1%
x264 [info]: ref B L1: 91.8% 8.2%
x264 [info]: kb/s:4275.34

Скриншоты

Яндекс.Метрика
Рейтинг@Mail.ru