[ Сегодня на трекере фрилич! Идет свободное скачивание без начисления Download ]

(Rock) Алиса - Ъ - 2010 [FLAC, image+.cue, lossless]

 

Создавать темы 13-Янв-2015 15:40

-Алиса / Ъ-- Год издания: 2010
Страна: Россия
Жанр: Rock
Продолжительность: 00:52:31-Лейбл издания: CD-Maximum
Страна-выпуска диска: Россия
Формат: FLAC
Битрейт аудио: lossless
Тип рипа: image+.cue
Наличие сканов в содержимом раздачи: да-

Трэклист

1. Ъ
2. Крен
3. В путь
4. Зона
5. Страх
6. Работа
7. Дождь и я
8. Звезда
9. Главное
10. Крик
11. Фавор

Лог создания рипа

Exact Audio Copy V1.0 beta 4 from 7. December 2014
Отчёт EAC об извлечении, выполненном 13. января 2015, 2:03
Alisa / Tverdy Znak
Дисковод: Optiarc DVD RW AD-7740H Adapter: 1 ID: 0
Режим чтения : Достоверность
Использование точного потока : Да
Отключение кэша аудио : Да
Использование указателей C2 : Нет
Коррекция смещения при чтении : 48
Способность читать области Lead-in и Lead-out : Нет
Заполнение пропущенных сэмплов тишиной : Да
Удаление блоков с тишиной в начале и конце : Нет
При вычислениях CRC использовались нулевые сэмплы : Да
Интерфейс : Встроенный Win32-интерфейс для Win NT/2000
Выходной формат : Пользовательский кодировщик
Выбранный битрейт : 128 kBit/s
Качество : Высокий
Добавление ID3-тега : Нет
Утилита сжатия : C:\Program Files (x86)\Exact Audio Copy\Flac\flac.exe
Дополнительные параметры : -V -8 -T "Date=%year%" -T "Genre=%genre%" %source%
TOC извлечённого CD
Трек | Старт | Длительность | Начальный сектор | Конечный сектор
---------------------------------------------------------------------
1 | 0:00.00 | 3:50.73 | 0 | 17322
2 | 3:50.73 | 4:32.45 | 17323 | 37767
3 | 8:23.43 | 6:22.63 | 37768 | 66480
4 | 14:46.31 | 4:07.67 | 66481 | 85072
5 | 18:54.23 | 6:03.14 | 85073 | 112311
6 | 24:57.37 | 3:38.16 | 112312 | 128677
7 | 28:35.53 | 4:10.48 | 128678 | 147475
8 | 32:46.26 | 4:41.69 | 147476 | 168619
9 | 37:28.20 | 3:25.07 | 168620 | 184001
10 | 40:53.27 | 6:11.47 | 184002 | 211873
11 | 47:04.74 | 5:26.66 | 211874 | 236389
Характеристики диапазона извлечения и сообщения об ошибках
Выбранный диапазон
Имя файла C:\АлисА - Ъ\User Manual(PDF).lnk.wav
Пиковый уровень 98.8 %
Скорость извлечения 1.9 X
Качество диапазона 100.0 %
CRC теста 37CCF819
CRC копии 37CCF819
Копирование... OK
Ошибок не произошло
AccurateRip: сводка
Трек 1 : извлечено точно (доверие 14) [BD0CD14E] (AR v1)
Трек 2 : извлечено точно (доверие 14) [C634CCE6] (AR v1)
Трек 3 : извлечено точно (доверие 14) [C88D1450] (AR v1)
Трек 4 : извлечено точно (доверие 14) [B7DD4067] (AR v1)
Трек 5 : извлечено точно (доверие 14) [D3BFCF1B] (AR v1)
Трек 6 : извлечено точно (доверие 14) [60153A6E] (AR v1)
Трек 7 : извлечено точно (доверие 14) [80EB4B95] (AR v1)
Трек 8 : извлечено точно (доверие 14) [67EA64C3] (AR v1)
Трек 9 : извлечено точно (доверие 14) [D0777237] (AR v1)
Трек 10 : извлечено точно (доверие 14) [5565D9E9] (AR v1)
Трек 11 : извлечено точно (доверие 13) [C9AD0EB6] (AR v1)
Все треки извлечены точно
Конец отчёта
==== Контрольная сумма отчёта B7BA6D39F60E001E166C15E13023476374EC63A5EFF3F8C745E23CAF5DFE33E6 ====

Индексная карта (non-compilant .cue)

REM GENRE Rock
REM DATE 2010
REM DISCID A00C4F0B
REM COMMENT "ExactAudioCopy v1.0b4"
PERFORMER "Alisa"
TITLE "Tverdy Znak"
FILE "User Manual(PDF).lnk" WAVE
TRACK 01 AUDIO
TITLE "Tverdy Znak"
PERFORMER "Alisa"
FLAGS DCP
INDEX 01 00:00:00
TRACK 02 AUDIO
TITLE "Kren"
PERFORMER "Alisa"
FLAGS DCP
INDEX 01 03:50:73
TRACK 03 AUDIO
TITLE "V Put"
PERFORMER "Alisa"
FLAGS DCP
INDEX 01 08:23:43
TRACK 04 AUDIO
TITLE "Zona"
PERFORMER "Alisa"
FLAGS DCP
INDEX 01 14:46:31
TRACK 05 AUDIO
TITLE "Strah"
PERFORMER "Alisa"
FLAGS DCP
INDEX 01 18:54:23
TRACK 06 AUDIO
TITLE "Rabota"
PERFORMER "Alisa"
FLAGS DCP
INDEX 01 24:57:37
TRACK 07 AUDIO
TITLE "Dozhd I Ya"
PERFORMER "Alisa"
FLAGS DCP
INDEX 01 28:35:53
TRACK 08 AUDIO
TITLE "Zvezda"
PERFORMER "Alisa"
FLAGS DCP
INDEX 01 32:46:26
TRACK 09 AUDIO
TITLE "Glavnoe"
PERFORMER "Alisa"
FLAGS DCP
INDEX 01 37:28:20
TRACK 10 AUDIO
TITLE "Krik"
PERFORMER "Alisa"
FLAGS DCP
INDEX 01 40:53:27
TRACK 11 AUDIO
TITLE "Favor"
PERFORMER "Alisa"
FLAGS DCP
INDEX 01 47:04:74

Скриншот спектра частот

Об исполнителе (группе)

«Алиса» — советская и российская рок-группа, образованная в 1983 году в Ленинграде.
Лидер и автор большинства песен группы — вокалист Константин Кинчев.
По состоянию на январь 2015 г. выпущено 19 студийных альбомов.

Об альбоме (сборнике)

«Ъ» («Твёрдый знак») — шестнадцатый студийный альбом рок-группы «Алиса», выпущенный 25 сентября 2010 года

Состав группы

Константин Кинчев — вокал, гитары, клавиши, программирование
Дмитрий «Ослик» Парфёнов — гитары, клавиши, петли, программирование
Евгений Лёвин — гитары
Игорь Романов — гитары
Пётр Самойлов — бас, вокал
Андрей Вдовиченко — барабаны
Даниил Калашник — гитары
Алексей Никифоров — труба
Яндекс.Метрика
Рейтинг@Mail.ru