Заповедник / Preservation (2014) WEB-DL [H.264/720p-LQ][VO]

 

Создавать темы 13-Янв-2015 08:33

-Заповедник / Preservation (2014) WEB-DL-Человек- единственное животное, убивающее ради удовольствия...- Производство: США, The Orchard
Жанр: Триллер, Ужасы
Год выпуска: 2014
Перевод: Одноголосый закадровый, любительский
Озвучка / Автор перевода: Дмитрий Грачев / Ворон
Субтитры: Вшитые отключаемые
Язык субтитров: Английский
Дата мировой премьеры: 17 апреля 2014
Режиссер: Кристофер Денэм
Продюсер: Дженнифер Дубин, Кора Олсон, Конни Каммингс
Актеры: Пабло Шрайбер, Аарон Стэтон, Ренн Шмидт, Коди Сэйнтгу, Ник Сашо, Мишель Шакон
Описание фильма:
Два брата, Шон и Майк и жена Майка оправляются поохотится, чтоб отвлечься от домашних проблем. Не обращая внимания на запрещающие знаки, они проникают в закрытый заповедник, где сталкиваются с чередой загадочных и пугающих происшествий...

Продолжительность: 01:28:15
Качество видео: WEB-DL [H.264/720p-LQ]
Видеокодек: MPEG-4 AVC/H.264
Битрейт видео: ~3889 kb/s
Размер кадра: 1280x544
Аудиокодек: AC3
Аудио#1: 192 kb/s, 2 ch - русский
Аудио#2: 384 kb/s, 6ch - английский

Mediainfo:

Общее
Уникальный идентификатор                 : 177421219361620726680029196870356069447 (0x857A157B605A86C3B068350BED806C47)
Полное имя                               : D:\KINO 3\Preservation.2014.WEB-DL.720p.mkv
Формат                                   : Matroska
Версия формата                           : Version 4 / Version 2
Размер файла                             : 2,81 Гбайт
Продолжительность                        : 1 ч. 28 м.
Общий поток                              : 4555 Кбит/сек
Дата кодирования                         : UTC 2015-01-12 11:42:28
Программа кодирования                    : mkvmerge v7.5.0 ('Glass Culture') 64bit built on Jan  4 2015 16:48:44
Библиотека кодирования                   : libebml v1.3.1 + libmatroska v1.4.2
Видео
Идентификатор                            : 1
Формат                                   : AVC
Формат/Информация                        : Advanced Video Codec
Профиль формата                          : [url=mailto:[email protected]][email protected][/url]
Параметр CABAC формата                   : Нет
Параметр ReFrames формата                : 2 кадра
Идентификатор кодека                     : V_MPEG4/ISO/AVC
Продолжительность                        : 1 ч. 28 м.
Битрейт                                  : 3889 Кбит/сек
Ширина                                   : 1280 пикселей
Высота                                   : 544 пикселя
Соотношение сторон                       : 2,35:1
Режим частоты кадров                     : Постоянный
Частота кадров                           : 23,976 кадра/сек
Цветовое пространство                    : YUV
Субдискретизация насыщенности            : 4:2:0
Битовая глубина                          : 8 бит
Тип развёртки                            : Прогрессивная
Бит/(Пиксели*Кадры)                      : 0.233
Размер потока                            : 2,40 Гбайт (85%)
Язык                                     : English
Default                                  : Да
Forced                                   : Нет
Основные цвета                           : BT.709
Характеристики трансфера                 : BT.709
Коэффициенты матрицы                     : BT.709
colour_range                             : Limited
Аудио #1
Идентификатор                            : 2
Формат                                   : AC-3
Формат/Информация                        : Audio Coding 3
Расширение режима                        : CM (complete main)
Параметр Endianness формата              : Big
Идентификатор кодека                     : A_AC3
Продолжительность                        : 1 ч. 28 м.
Вид битрейта                             : Постоянный
Битрейт                                  : 192 Кбит/сек
Каналы                                   : 2 канала
Расположение каналов                     : Front: L R
Частота                                  : 44,1 КГц
Битовая глубина                          : 16 бит
Метод сжатия                             : С потерями
Размер потока                            : 121 Мбайт (4%)
Заголовок                                : Дмитрий Грачев
Язык                                     : Russian
Default                                  : Да
Forced                                   : Да
Аудио #2
Идентификатор                            : 3
Формат                                   : AC-3
Формат/Информация                        : Audio Coding 3
Расширение режима                        : CM (complete main)
Параметр Endianness формата              : Big
Идентификатор кодека                     : A_AC3
Продолжительность                        : 1 ч. 28 м.
Вид битрейта                             : Постоянный
Битрейт                                  : 384 Кбит/сек
Каналы                                   : 6 каналов
Расположение каналов                     : Front: L C R, Side: L R, LFE
Частота                                  : 48,0 КГц
Битовая глубина                          : 16 бит
Метод сжатия                             : С потерями
Размер потока                            : 242 Мбайт (8%)
Язык                                     : English
Default                                  : Нет
Forced                                   : Нет
Текст #2
Идентификатор                            : 5
Формат                                   : UTF-8
Идентификатор кодека                     : S_TEXT/UTF8
Идентификатор кодека/Информация          : UTF-8 Plain Text
Язык                                     : English
Default                                  : Нет
Forced                                   : Нет
Меню
00:00:00.000                             : en:Opening
00:05:21.000                             : en:Gas Station
00:11:18.000                             : en:Deer Blind
00:18:46.000                             : en:Campfire
00:28:04.000                             : en:Morning
00:36:16.000                             : en:Dog Toy
00:42:56.000                             : en:Ranger Station
00:55:40.000                             : en:Cliff's Edge
01:07:02.000                             : en:Flares
01:14:28.000                             : en:Drag
01:20:16.000                             : en:Swings
Скриншоты:
-Время раздачи: 24/7 до 5 скачавших
Яндекс.Метрика
Рейтинг@Mail.ru