[ Сегодня на трекере фрилич! Идет свободное скачивание без начисления Download ]

Под прицелом / Silent Trigger (1996) HDRip

 

Создавать темы 13-Янв-2015 08:31

-Под прицелом / Silent Trigger (1996) HDRip-«They trained him to kill. Now they want him dead»-- Год выпуска: 1996
Жанр: Боевик, Триллер, Драма
Производство: Канада, Великобритания / Algonquin Productions Limited, Cine Grande Corporation, Conquistador Entertainment, Filmline International Inc., Newmarket Capital Group LLC-Описание фильма:
«Снайпер», суперкомандос, работающий на «Агентство» — законспирированную правительственную организацию, управляемую «Координатором». «Снайпер» начинает сомневаться, всматриваться в глаза и лица своих мишеней.
А его «Контролер», второй член снайперской команды, несмотря на молодость, обладает жесткой хваткой и решительностью наемного убийцы. После того, как первая миссия их снайперской команды закончилась провалом и едва их не погубила, они вновь сталкиваются при выполнении задания для «Агентства», давшего им шанс вернуться в систему.
Их мишень: автомобиль, который должен проехать по скоростному шоссе на рассвете. Им противостоят не только сомнения, призраки и беззащитная мишень. «Координатор» отдал приказ «Контролеру» уничтожить «Снайпера», если тот вновь провалит операцию.
Режиссер: Рассел Малкэй
Продюсер: Николас Клермон, Сильвио Мураглиа, Паскаль Борно
Актеры: Дольф Лундгрен, Джина Беллман, Конрад Данн, Кристофер Хейердал, Эмма Стивенс, Александрия Абер, Рейнольд Робинсон, Дэйл Хэйес, Эрин Симс, Джонатан Роберт Рондо-Перевод: Двухголосый закадровый
Язык субтитров: отсутствуют-
Дата мировой премьеры: 4 июля 1996
Дата российской премьеры: 30 апреля 2009, «Русское счастье»-Продолжительность: 01:33:52
Качество видео: HDRip
Видео: MPEG4, XviD, 720x304 (2.35:1), 23.976 fps, 2 030 Kbps (0.387 bit/pixel)
Аудио: AC-3, 48.0 KHz, 2 ch, 192 Kbps, CBR

Знаете ли вы, что...

Писатель Серджо Алтери позже написал серию из трех романов под названием «Снайпер» (изданный в Италии) основанный на его сценарии и характере.
Первоначально сюжет фильма рассказывал о снайпере (Лундгрен), которому «заказали» крутого полицейского (Брэндон Ли), позже они должны были объединиться против общего врага. Брэндон успел подписать контракт и собирался приступить к сьёмкам после завершения работы над фильмом «Ворон» (1994), но в силу известных трагических обстоятельств этого не произошло. Потому сценарий был переделан.
Лундгрен прошёл специальный курс по обращению с бронебойной винтовкой, фигурирующей в фильме. По словам инструктора, Дольф показал отличный результат во время обучения.
Во время сьёмок изпользовался полуторометровый макет здания, в котором по сюжету находятся герои Беллман и Лундгрена.
Первоначальное название фильма было «Алгонкин до свидания», ироническая ссылка на Отель Алгонкин в Нью-Йорке.

Mediainfo:

Формат                                   : AVI
Формат/Информация                        : Audio Video Interleave
Размер файла                             : 1,46 Гбайт
Продолжительность                        : 1 ч. 33 м.
Общий поток                              : 2231 Кбит/сек
Программа кодирования                    : VirtualDubMod 1.5.10.3 | [url=http://www.virtualdub-fr.org]www.virtualdub-fr.org[/url] || (build 2550/release)
Библиотека кодирования                   : VirtualDubMod build 2550/release
Видео
Идентификатор                            : 0
Формат                                   : MPEG-4 Visual
Профиль формата                          : Advanced [email protected]
Параметр BVOP формата                    : 1
Параметр QPel формата                    : Нет
Параметр GMC формата                     : Без точки перехода
Параметр матрицы формата                 : Default (MPEG)
Идентификатор кодека                     : XVID
Идентификатор кодека/Подсказка           : XviD
Продолжительность                        : 1 ч. 33 м.
Битрейт                                  : 2030 Кбит/сек
Ширина                                   : 720 пикселей
Высота                                   : 304 пикселя
Соотношение сторон                       : 2,35:1
Частота кадров                           : 23,976 кадра/сек
Цветовое пространство                    : YUV
Субдискретизация насыщенности            : 4:2:0
Битовая глубина                          : 8 бит
Тип развёртки                            : Прогрессивная
Метод сжатия                             : С потерями
Бит/(Пиксели*Кадры)                      : 0.387
Размер потока                            : 1,33 Гбайт (91%)
Библиотека кодирования                   : XviD 73
Аудио
Идентификатор                            : 1
Формат                                   : AC-3
Формат/Информация                        : Audio Coding 3
Расширение режима                        : CM (complete main)
Параметр Endianness формата              : Big
Идентификатор кодека                     : 2000
Продолжительность                        : 1 ч. 33 м.
Вид битрейта                             : Постоянный
Битрейт                                  : 192 Кбит/сек
Каналы                                   : 2 канала
Расположение каналов                     : Front: L R
Частота                                  : 48,0 КГц
Битовая глубина                          : 16 бит
Метод сжатия                             : С потерями
Размер потока                            : 129 Мбайт (9%)
Выравнивание                             : Разделение по промежуткам
Продолжительность промежутка             : 42  мс. (1,00 видеокадр)
Время предзагрузки промежутка            : 500  мс.
Скриншоты:
--Время раздачи: с 12:00 до 18:30 до 3-х скачавших
Рейтинг@Mail.ru