Пересмешник / Mockingbird (2014) HDRip [VO]

 

Создавать темы 13-Янв-2015 08:29

-Пересмешник / Mockingbird (2014) HDRip- Производство: США
Жанр: Ужасы
Режиссер: Брайан Бертино
Продюсер: Брайан Бертино, Эдриэнн Биддл, Джейсон Блум
Актеры: Одри Мари Андерсон, Аливия Элин Линд, Бенджамин Стокхэм, Эмили Элин Линд, Натали Элин Линд, Тодд Стэшвик, Ли Гарлингтон, Спенсер Лист, Александра Лайдон, Изабелла Мурад
Описание фильма:
Трое случайных людей под вечер обнаружили у своих дверей работающие видеокамеры и сообщение, что все они выбраны для участия в неком конкурсе. Никто из конкурсантов не был знаком друг с другом, но с этого момента их судьбам стало суждено пересечься, причём самым трагичным образом.
Перевод: Любительский одноголосый (datynet)
Субтитры: Отсутствуют

Дата мировой премьеры: 7 октября 2014
Продолжительность: 01:21:58
Качество видео: HDRip
Видеокодек: XviD
Битрейт видео: ~1998 Кбит/с
Размер кадра: 720x400
Аудиокодек: AC3, 2 сh
Битрейт аудио: 192 Кбит/с

MediaInfo:

Общее
Полное имя : C:\NNM\Пересмешник\Peresmeshnik 2014 HDRip.avi
Формат : AVI
Формат/Информация : Audio Video Interleave
Размер файла : 1,26 Гбайт
Продолжительность : 1 ч. 21 м.
Общий поток : 2200 Кбит/сек
Библиотека кодирования : VirtualDub build 34753/release
Видео
Идентификатор : 0
Формат : MPEG-4 Visual
Профиль формата : Advanced [email protected]
Параметр BVOP формата : 2
Параметр QPel формата : Нет
Параметр GMC формата : Без точки перехода
Параметр матрицы формата : Default (H.263)
Режим смешивания : Сжатый битовый поток
Идентификатор кодека : XVID
Идентификатор кодека/Подсказка : XviD
Продолжительность : 1 ч. 21 м.
Битрейт : 1998 Кбит/сек
Ширина : 720 пикселей
Высота : 400 пикселей
Соотношение сторон : 16:9
Частота кадров : 23,976 кадра/сек
Цветовое пространство : YUV
Субдискретизация насыщенности : 4:2:0
Битовая глубина : 8 бит
Тип развёртки : Прогрессивная
Метод сжатия : С потерями
Бит/(Пиксели*Кадры) : 0.289
Размер потока : 1,14 Гбайт (91%)
Библиотека кодирования : XviD 65
Аудио
Идентификатор : 1
Формат : MPEG Audio
Версия формата : Version 1
Профиль формата : Layer 3
Идентификатор кодека : 55
Идентификатор кодека/Подсказка : MP3
Продолжительность : 1 ч. 21 м.
Вид битрейта : Постоянный
Битрейт : 192 Кбит/сек
Каналы : 2 канала
Частота : 44,1 КГц
Метод сжатия : С потерями
Размер потока : 113 Мбайт (9%)
Выравнивание : Разделение по промежуткам
Продолжительность промежутка : 42 мс. (1,00 видеокадр)
Время предзагрузки промежутка : 500 мс.
Скриншоты:
-Время раздачи: Круглосуточно до 10 скачавших
Яндекс.Метрика
Рейтинг@Mail.ru