[ Сегодня на трекере фрилич! Идет свободное скачивание без начисления Download ]

Армия спасения (2000) WEB-DLRip [H.264]

 

Создавать темы 13-Янв-2015 03:27

-Армия спасения (2000) WEB-DLRip- Жанр: Комедия
Производство: Видеофакт, Беларусь
Описание фильма:
Эксцентрическая комедия о приключениях бравых молодых солдат под командованием майора Бардачного, высланных на дальнюю точку. Подразделение молодых бойцов становится невольным участником шпионской игры армии США, которая под прикрытием проходящих военных учений пытается «вскрыть стратегическую трубу» и на долгие годы подорвать боеспособность отечественной армии. Все диалоги взяты из военного устава и памяток старшине по воспитанию роты.
Режиссер: Евгений Кравцов
Актеры: Евгений Жариков, Олег Шкловский, Семён Морозов, Александр Тимошкин, Людмила Цветова, Владимир Байрачный, Юрий Пучинский, Игорь Третьяк, Евгений Журавкин, Феликс Нкодо, Иван Апанасюк, Антон Селявин, Сергей Селюк, Владимир Золотухин, Людмила Кравцова (II), Игорь Сидоренко (IV), Павел Кузнецов, Дмитрий Биончик, Роман Кроман, Валерий Береснев, Андрей Тукало, Александр Пыкс, Константин Михаленко
Продолжительность: 01:27:02

Видеокодек: MPEG-4 AVC/H.264
Битрейт видео: ~2039 Кбит/с
Размер кадра: 720 x 544
Качество видео: WEB-DLRip
Аудиокодек: AC3 2.0
Битрейт аудио: 192 Кбит/с

Награды

Приз жюри «за верность и любовь к кино» (продюсер Евгений Кравцов) МКФ стран СНГ и Балтии «Листопад—2000» (Минск).

MediaInfo

Общее
Уникальный идентификатор : 241131663690261298822515856931751134164 (0xB56844E7F03900BE9B3EAE9E4A4B03D4)
Полное имя : Armiya.spaseniya.2000.x264.WEB-DLRip.mkv
Формат : Matroska
Версия формата : Version 4 / Version 2
Размер файла : 1,36 Гбайт
Продолжительность : 1 ч. 27 м.
Общий поток : 2233 Кбит/сек
Дата кодирования : UTC 2015-01-11 09:12:54
Программа кодирования : mkvmerge v7.4.0 ('Circles') 64bit built on Dec 12 2014 12:19:56
Библиотека кодирования : libebml v1.3.0 + libmatroska v1.4.1
DURATION : 01:27:02.848000000
NUMBER_OF_FRAMES : 163214
NUMBER_OF_BYTES : 125348352
_STATISTICS_WRITING_APP : mkvmerge v7.4.0 ('Circles') 64bit built on Dec 12 2014 12:19:56
_STATISTICS_WRITING_DATE_UTC : 2015-01-11 09:12:54
_STATISTICS_TAGS : BPS DURATION NUMBER_OF_FRAMES NUMBER_OF_BYTES
Видео
Идентификатор : 1
Формат : AVC
Формат/Информация : Advanced Video Codec
Профиль формата : [url=mailto:[email protected]][email protected][/url]
Параметр CABAC формата : Да
Параметр ReFrames формата : 5 кадров
Идентификатор кодека : V_MPEG4/ISO/AVC
Продолжительность : 1 ч. 27 м.
Битрейт : 2039 Кбит/сек
Ширина : 720 пикселей
Высота : 544 пикселя
Соотношение сторон : 4:3
Режим частоты кадров : Постоянный
Частота кадров : 25,000 кадров/сек
Цветовое пространство : YUV
Субдискретизация насыщенности : 4:2:0
Битовая глубина : 8 бит
Тип развёртки : Прогрессивная
Бит/(Пиксели*Кадры) : 0.208
Размер потока : 1,21 Гбайт (89%)
Библиотека кодирования : x264 core 144 r2525 40bb568
Настройки программы : cabac=1 / ref=5 / deblock=1:-3:-3 / analyse=0x3:0x133 / me=umh / subme=7 / psy=1 / psy_rd=1.00:0.00 / mixed_ref=1 / me_range=32 / chroma_me=1 / trellis=2 / 8x8dct=1 / cqm=0 / deadzone=21,11 / fast_pskip=1 / chroma_qp_offset=-2 / threads=4 / lookahead_threads=1 / sliced_threads=0 / nr=0 / decimate=1 / interlaced=0 / bluray_compat=0 / constrained_intra=0 / bframes=5 / b_pyramid=2 / b_adapt=2 / b_bias=0 / direct=3 / weightb=1 / open_gop=0 / weightp=2 / keyint=250 / keyint_min=25 / scenecut=40 / intra_refresh=0 / rc_lookahead=40 / rc=2pass / mbtree=1 / bitrate=2039 / ratetol=1.0 / qcomp=0.60 / qpmin=10 / qpmax=51 / qpstep=4 / cplxblur=20.0 / qblur=0.5 / vbv_maxrate=240000 / vbv_bufsize=240000 / nal_hrd=none / filler=0 / ip_ratio=1.40 / aq=1:1.00
Default : Да
Forced : Нет
Аудио
Идентификатор : 2
Формат : AC-3
Формат/Информация : Audio Coding 3
Расширение режима : CM (complete main)
Параметр Endianness формата : Big
Идентификатор кодека : A_AC3
Продолжительность : 1 ч. 27 м.
Вид битрейта : Постоянный
Битрейт : 192 Кбит/сек
Каналы : 2 канала
Расположение каналов : Front: L R
Частота : 48,0 КГц
Битовая глубина : 16 бит
Метод сжатия : С потерями
Размер потока : 120 Мбайт (9%)
Default : Да
Forced : Нет
Скриншоты:
-Время раздачи: По возможности (до 3 скачавших)
Яндекс.Метрика
Рейтинг@Mail.ru