Французский шпион (2014) HDTV [1080i]

 

Создавать темы 13-Янв-2015 03:25

-Французский шпион (2014) HDTV [1080i]- Производство: Россия, ООО "Зет Синематик лтд"
Жанр: Детектив, боевик
Режиссер: Алексей Феоктистов
Актеры:Оскар Кучера, Евгений Редько, Анна Чурина, Дмитрий Супонин, Охунджон Комилов, Сергей Батрак
Описание:
Лейтенант Андрей Канаев служит в социалистической Чехословакии. Советские войска выводятся обратно в СССР. Часть, в которой служил Канаев, расформировывается. Андрей расстроен сокращением и делится своими переживаниями с приятелем — чехом Мареком. Марек организовывает подставу, из-за которой Канаев оказывается вне закона. Через своего агента-вербовщика Софи он переправляет Андрея во Францию, где тот от безысходности поступает в «Иностранный Легион». В иностранном легионе Андрея вербует глава внешней разведки мсье Даниэль. Вскоре Андрей, уже в новом статусе и с новыми документами, возвращается в постперестроечную Россию и начинает строить новую жизнь, не забывая при этом выполнять поручения своих новых хозяев

Дата Российской премьеры: 25 июля 2014 года
Дата мировой премьеры: 22 марта 2014 года
Продолжительность: 01:33:24
Качество видео: HDTV [1080i]
Формат: MPEG-TS
Видеокодек: MPEG-4 AVC
Битрейт видео: ~9538 kbps avg
Размер кадра: 1920x1080, 25 fps
Аудиокодек: АС3, 6 ch
Битрейт аудио: 448 kbps avg

MediaInfo:

Общее
Идентификатор : 1 (0x1)
Полное имя : D:\Французский шпион.ts
Формат : MPEG-TS
Размер файла : 6,22 Гбайт
Продолжительность : 1 ч. 33 м.
Режим общего битрейта : Переменный
Общий поток : 9538 Кбит/сек
Видео
Идентификатор : 69 (0x45)
Идентификатор меню : 1 (0x1)
Формат : AVC
Формат/Информация : Advanced Video Codec
Профиль формата : [url=mailto:[email protected]][email protected][/url]
Параметр CABAC формата : Да
Параметр ReFrames формата : 3 кадра
Идентификатор кодека : 27
Продолжительность : 1 ч. 33 м.
Битрейт : 8615 Кбит/сек
Ширина : 1920 пикселей
Высота : 1080 пикселей
Соотношение сторон : 16:9
Частота кадров : 25,000 кадров/сек
Стандарт вещания : Component
Цветовое пространство : YUV
Субдискретизация насыщенности : 4:2:0
Битовая глубина : 8 бит
Тип развёртки : Чересстрочная
Порядок развёртки : Верхнее поле первое
Бит/(Пиксели*Кадры) : 0.166
Размер потока : 5,62 Гбайт (90%)
Основные цвета : BT.709
Характеристики трансфера : BT.709
Коэффициенты матрицы : BT.709
Аудио
Идентификатор : 68 (0x44)
Идентификатор меню : 1 (0x1)
Формат : AC-3
Формат/Информация : Audio Coding 3
Расширение режима : CM (complete main)
Параметр Endianness формата : Big
Идентификатор кодека : 129
Продолжительность : 1 ч. 33 м.
Вид битрейта : Постоянный
Битрейт : 448 Кбит/сек
Каналы : 6 каналов
Расположение каналов : Front: L C R, Side: L R, LFE
Частота : 48,0 КГц
Битовая глубина : 16 бит
Метод сжатия : С потерями
Размер потока : 299 Мбайт (5%)
Язык : Russian
Скриншоты:
-Время раздачи: 24/7 до первых 5 скачавших
Яндекс.Метрика
Рейтинг@Mail.ru