Территория Джа (2015) HDRip

 

Создавать темы 13-Янв-2015 03:23

-Территория Джа (2015) HDRip- Год выпуска: 2015
Производство: Россия, Казахстан, SuperEgo
Жанр: Комедия, Фантастика, Фэнтези-Режиссер: Алексей Пантелеев
Актеры: Дмитрий Нагиев, Сергей Белоголовцев, Елена Беркова, Александр Лаэртский, Вадим Шлахтер, Дмитрий (Гоблин) Пучков и другие.
Описание фильма:
После предотвращения метеоритной угрозы путем перемещения Земли в космическом пространстве, люди совершенно случайно открыли неизвестную ранее планету. Обитающие на ней существа тут же начинают уничтожать на Земле всё живое. Специалисту по внеземным цивилизациям (Дмитрий Нагиев) в ходе последних переговоров с инопланетными захватчиками удается узнать секретную информацию о некой синей колбасе, которая, согласно древнему преданию, может спасти человечество. По приказу Генерала (Вадим Шлахтер) отряд космонавтов отправляется на красную планету, чтобы найти древний артефакт и нанести ответный удар враждебной цивилизации. Но члены команды во главе с капитаном корабля Харриусом (Сергей Белоголовцев) и космической голограммой (Елена Беркова) не подозревают, что они ступили на территорию самого Джа – жестокого и кровожадного, но в то же время обаятельного и не лишённого доли юмора, правителя.-Язык: Русский
Перевод: Не требуется
Субтитры: Отсутствуют- -Продолжительность: 01:34:23
Качество видео: HDRip
Видео: MPEG4, XviD, 720x400 (16:9), 25.000 fps, 964 Kbps (0.134 bit/pixel)
Аудио: MP3, 48.0 KHz, 2 ch, 128 Kbps, CBR

Дополнительная информация:

Территория Джа – действительно очень необычный фильм. Фильм – объединяющий не объединяемое, сочетающий не сочетаемое, смешивающий совершенно разные жанры. Режиссер фильма, он же продюсер, оператор и монтажер сделал невозможное, доказал всем вокруг и самому себе, что один человек может самостоятельно воплотить в жизнь даже самую нестандартную идею, собрав команду, известных актеров и создать кино не для массового зрителя. Звёзды кино для взрослых, музыканты и простые люди из народа, именитые переводчики и культовые актёры снялись в фильме не за круглый гонорар, а за идею. И сделали это с выкладкой на 100%. Где, как ни здесь, можно увидеть, как Дмитрий Нагиев превращается из брутального физрука в забавного телеведущего, играя в лучших традициях «Осторожно Модерн», а ему вторит Сергей Белоголовцев из легендарной ОСП-студии, под едкие комментарии Дмитрия (Гоблина) Пучкова? Где ещё Елена Беркова расскажет, как правильно варить настоящий украинский борщ, а Вадим Шлахтер научит морочить инопланетянам голову? Только здесь. На Территории Джа!

Mediainfo:

Формат                                   : AVI
Формат/Информация                        : Audio Video Interleave
Размер файла                             : 744 Мбайт
Продолжительность                        : 1 ч. 34 м.
Общий поток                              : 1101 Кбит/сек
Программа кодирования                    : VirtualDubMod 1.5.10.3 | [url=http://www.virtualdub-fr.org]www.virtualdub-fr.org[/url] || (build 2550/release)
Библиотека кодирования                   : VirtualDubMod build 2550/release
Видео
Идентификатор                            : 0
Формат                                   : MPEG-4 Visual
Профиль формата                          : Advanced [email protected]
Параметр BVOP формата                    : 1
Параметр QPel формата                    : Нет
Параметр GMC формата                     : Без точки перехода
Параметр матрицы формата                 : Default (MPEG)
Идентификатор кодека                     : XVID
Идентификатор кодека/Подсказка           : XviD
Продолжительность                        : 1 ч. 34 м.
Битрейт                                  : 964 Кбит/сек
Ширина                                   : 720 пикселей
Высота                                   : 400 пикселей
Соотношение сторон                       : 16:9
Частота кадров                           : 25,000 кадров/сек
Цветовое пространство                    : YUV
Субдискретизация насыщенности            : 4:2:0
Битовая глубина                          : 8 бит
Тип развёртки                            : Прогрессивная
Метод сжатия                             : С потерями
Бит/(Пиксели*Кадры)                      : 0.134
Размер потока                            : 651 Мбайт (87%)
Библиотека кодирования                   : XviD 73
Аудио
Идентификатор                            : 1
Формат                                   : MPEG Audio
Версия формата                           : Version 1
Профиль формата                          : Layer 3
Идентификатор кодека                     : 55
Идентификатор кодека/Подсказка           : MP3
Продолжительность                        : 1 ч. 34 м.
Вид битрейта                             : Постоянный
Битрейт                                  : 128 Кбит/сек
Каналы                                   : 2 канала
Частота                                  : 48,0 КГц
Метод сжатия                             : С потерями
Размер потока                            : 86,4 Мбайт (12%)
Выравнивание                             : Соединение по промежуткам
Продолжительность промежутка             : 40  мс. (1,00 видеокадр)
Время предзагрузки промежутка            : 504  мс.
Библиотека кодирования                   : LAME3.99r
Настройки программы                      : -m s -V 4 -q 2 -lowpass 17 -b 128
Скриншоты:
--Время раздачи: с 12:00 до 18:30 до 3-х скачавших
Яндекс.Метрика
Рейтинг@Mail.ru