[ Сегодня на трекере фрилич! Идет свободное скачивание без начисления Download ]

(Rock, Pop) Chris Norman - Hits From The Heart - 1988, FLAC (image+.cue), lossless

 

Создавать темы 12-Янв-2015 06:57

--Chris Norman - Hits From The Heart-- Жанр: Rock, Pop
Страна-производитель диска: Germany
Год издания: 1988
Издатель (лейбл): Hansa
Аудиокодек: FLAC (*.flac)
Тип рипа: image+.cue
Битрейт аудио: lossless
Продолжительность: 00:51:27
Наличие сканов в содержимом раздачи: да
Треклист:

01. Broken Heroes - Maxi Version 07:32
02. Ordinary Heart - Maxi Version 06:02
03. No Arms Can Ever Hold You 03:45
04. Some Hearts Are Diamonds 03:44
05. Sarah (You Take My Breath Away) - Maxi Version 05:59
06. Midnight Lady - Maxi Version 05:05
07. Hunters Of The Night 04:06
08. Chain Reaction 03:42
09. Love Is ... 03:31
10. Woman In Love 04:28
11. I Want To Be Needed (Duet with Shari Belafonte) 03:28

EAC

Exact Audio Copy V1.0 beta 3 from 29. August 2011
Отчёт EAC об извлечении, выполненном 3. сентября 2014, 23:22
Chris Norman / Hits From The Heart
Дисковод: PIONEER BD-RW BDR-S09 Adapter: 0 ID: 3
Режим чтения : Достоверность
Использование точного потока : Да
Отключение кэша аудио : Да
Использование указателей C2 : Нет
Коррекция смещения при чтении : 667
Способность читать области Lead-in и Lead-out : Нет
Заполнение пропущенных сэмплов тишиной : Да
Удаление блоков с тишиной в начале и конце : Нет
При вычислениях CRC использовались нулевые сэмплы : Да
Интерфейс : Встроенный Win32-интерфейс для Win NT/2000
Выходной формат : Пользовательский кодировщик
Выбранный битрейт : 768 kBit/s
Качество : Высокий
Добавление ID3-тега : Нет
Утилита сжатия : C:\Program Files\Exact Audio Copy\FLAC\FLAC.EXE
Дополнительные параметры : -8 -V -T "ARTIST=%artist%" -T "TITLE=%title%" -T "ALBUM=%albumtitle%" -T "DATE=%year%" -T "TRACKNUMBER=%tracknr%" -T "GENRE=%genre%" -T "COMMENT=%comment%" -T "BAND=%albuminterpret%" -T "ALBUMARTIST=%albuminterpret%" -T "COMPOSER=%composer%" %haslyrics%--tag-from-file=LYRICS="%lyricsfile%"%haslyrics% -T "DISCNUMBER=%cdnumber%" -T "TOTALDISCS=%totalcds%" -T "TOTALTRACKS=%numtracks%" %hascover%--picture="%coverfile%"%hascover% %source% -o %dest%
TOC извлечённого CD
Трек | Старт | Длительность | Начальный сектор | Конечный сектор
---------------------------------------------------------------------
1 | 0:00.00 | 7:32.37 | 0 | 33936
2 | 7:32.37 | 6:02.38 | 33937 | 61124
3 | 13:35.00 | 3:45.42 | 61125 | 78041
4 | 17:20.42 | 3:44.25 | 78042 | 94866
5 | 21:04.67 | 5:59.03 | 94867 | 121794
6 | 27:03.70 | 5:05.55 | 121795 | 144724
7 | 32:09.50 | 4:06.42 | 144725 | 163216
8 | 36:16.17 | 3:42.33 | 163217 | 179899
9 | 39:58.50 | 3:31.32 | 179900 | 195756
10 | 43:30.07 | 4:28.55 | 195757 | 215911
11 | 47:58.62 | 3:28.13 | 215912 | 231524
Характеристики диапазона извлечения и сообщения об ошибках
Выбранный диапазон
Имя файла F:\EAC\Chris Norman - Hits From The Heart.wav
Пиковый уровень 89.0 %
Скорость извлечения 2.7 X
Качество диапазона 100.0 %
CRC теста F5101695
CRC копии F5101695
Копирование... OK
Ошибок не произошло
AccurateRip: сводка
Трек 1 : извлечено точно (доверие 1) [2FC091AF] (AR v2)
Трек 2 : извлечено точно (доверие 1) [FD7A6B9E] (AR v2)
Трек 3 : извлечено точно (доверие 1) [32A6B08F] (AR v2)
Трек 4 : извлечено точно (доверие 1) [DB31A197] (AR v2)
Трек 5 : извлечено точно (доверие 1) [44BD3671] (AR v2)
Трек 6 : извлечено точно (доверие 1) [5CC687CD] (AR v2)
Трек 7 : извлечено точно (доверие 1) [61A96D9B] (AR v2)
Трек 8 : извлечено точно (доверие 1) [DE1DF0BB] (AR v2)
Трек 9 : извлечено точно (доверие 1) [F5644E8B] (AR v2)
Трек 10 : извлечено точно (доверие 1) [B1A1D425] (AR v2)
Трек 11 : извлечено точно (доверие 1) [EF0C483B] (AR v2)
Все треки извлечены точно
Конец отчёта

Создавать темы 15-Июл-2015 14:59 (спустя 6 месяцев 3 дня)

Спасибо за регистрацию и альбом!
Удачи!
Григоричъ
Яндекс.Метрика
Рейтинг@Mail.ru