(Шансон) [CD] VA - Легендарная двадцатка шансона - 2003, FLAC (image+.cue), lossless

 

Создавать темы 12-Янв-2015 06:55

--Various - Легендарная двадцатка шансона-- Жанр: Шансон
Носитель: CD
Страна-производитель диска: Україна
Год издания: 2003
Издатель (лейбл): Одиссей
Номер по каталогу: Odissey 02120301
Страна исполнителя: Россия
Аудиокодек: FLAC (*.flac)
Тип рипа: image+.cue
Битрейт аудио: lossless
Продолжительность: 01:04:43
Наличие сканов в содержимом раздачи: да
Треклист:

01. Михаил Шуфутинский - Налетчик Беня 04:18
02. Анатолий Полотно - Ветер северный 05:01
03. Бутырка - По этапу 03:26
04. Кабриолет - Золотое колечко 04:43
05. Сергей Дикий - Незнакомка 03:57
06. В.Высоцкий - Мой друг уехал в Магадан 03:44
07. Александр Кальянов - Кукушечка 03:47
08. Лесоповал - Кореш 03:51
09. Сергей Наговицын - Белый снег 04:18
10. Михаил Круг - Исповедь 05:19
11. Слава Бобков - По каретному 03:31
12. Михаил Шелег - Между нами города 03:35
13. Беломорканал - Разведенные мосты 04:57
14. Геннадий Жаров - Самолетик, самолет 03:31
15. Трофим - Танька 04:32
16. Л.Успенская и С.Медяник - Я сам по себе 03:29
17. Петлюра - Печальный парень 03:28
18. Ефрем Амирамов - Март 02:32
19. Гарик Кричевский - Ништяк, браток 02:47
20. Михаил Гулько - Воркута-Ленинград 04:57

EAC

Exact Audio Copy V1.0 beta 1 from 15. November 2010
Отчёт EAC об извлечении, выполненном 11. января 2015, 0:37
Various / Легендарная двадцатка шансона
Дисковод: ASUS DRW-24B3ST Adapter: 0 ID: 1
Режим чтения : Достоверность
Использование точного потока : Да
Отключение кэша аудио : Да
Использование указателей C2 : Нет
Коррекция смещения при чтении : 6
Способность читать области Lead-in и Lead-out : Нет
Заполнение пропущенных сэмплов тишиной : Да
Удаление блоков с тишиной в начале и конце : Нет
При вычислениях CRC использовались нулевые сэмплы : Да
Интерфейс : Встроенный Win32-интерфейс для Win NT/2000
Выходной формат : Пользовательский кодировщик
Выбранный битрейт : 896 kBit/s
Качество : Высокий
Добавление ID3-тэга : Нет
Утилита сжатия : C:\Program Files\Exact Audio Copy\FLAC\FLAC.EXE
Дополнительные параметры : -T "DATE=%y" -T "GENRE=%m" -8 -V %s
TOC извлечённого CD
Трек | Старт | Длительность | Начальный сектор | Конечный сектор
---------------------------------------------------------------------
1 | 0:00.00 | 4:18.08 | 0 | 19357
2 | 4:18.08 | 5:01.30 | 19358 | 41962
3 | 9:19.38 | 3:26.29 | 41963 | 57441
4 | 12:45.67 | 4:43.63 | 57442 | 78729
5 | 17:29.55 | 3:57.31 | 78730 | 96535
6 | 21:27.11 | 3:44.21 | 96536 | 113356
7 | 25:11.32 | 3:47.29 | 113357 | 130410
8 | 28:58.61 | 3:51.59 | 130411 | 147794
9 | 32:50.45 | 4:18.38 | 147795 | 167182
10 | 37:09.08 | 5:19.06 | 167183 | 191113
11 | 42:28.14 | 3:31.45 | 191114 | 206983
12 | 45:59.59 | 3:35.62 | 206984 | 223170
13 | 49:35.46 | 4:57.21 | 223171 | 245466
14 | 54:32.67 | 3:31.34 | 245467 | 261325
15 | 58:04.26 | 4:32.38 | 261326 | 281763
16 | 62:36.64 | 3:29.49 | 281764 | 297487
17 | 66:06.38 | 3:28.72 | 297488 | 313159
18 | 69:35.35 | 2:32.40 | 313160 | 324599
19 | 72:08.00 | 2:47.31 | 324600 | 337155
20 | 74:55.31 | 4:57.24 | 337156 | 359454
Характеристики диапазона извлечения и сообщения об ошибках
Выбранный диапазон
Имя файла E:\Various - Легендарная двадцатка шансона.wav
Пиковый уровень 98.8 %
0.4 X
Качество диапазона 100.0 %
CRC теста 7D6A59B9
CRC копии 7D6A59B9
Копирование... OK
Ошибок не произошло
AccurateRip: сводка
Трек 1 нет в базе данных
Трек 2 нет в базе данных
Трек 3 нет в базе данных
Трек 4 нет в базе данных
Трек 5 нет в базе данных
Трек 6 нет в базе данных
Трек 7 нет в базе данных
Трек 8 нет в базе данных
Трек 9 нет в базе данных
Трек 10 нет в базе данных
Трек 11 нет в базе данных
Трек 12 нет в базе данных
Трек 13 нет в базе данных
Трек 14 нет в базе данных
Трек 15 нет в базе данных
Трек 16 нет в базе данных
Трек 17 нет в базе данных
Трек 18 нет в базе данных
Трек 19 нет в базе данных
Трек 20 нет в базе данных
Ни одного трека нет в базе AccurateRip
Конец отчёта
==== 64A69EEA4F6A0D7A98DBBC8290798D2E200E44078EEBC990A63B5CA8D4E6C34A ====
Яндекс.Метрика
Рейтинг@Mail.ru