Пятьдесят на пятьдесят / Fifty/Fifty (Чарльз Мартин Смит / Charles Martin Smith) [1992 г., боевик, комедия, приключения, DVDRip-AVC] AVO (Алексей Михалёв) + MVO + original (Eng)

 

Создавать темы 12-Янв-2015 06:51

Пятьдесят на пятьдесят / Fifty/Fifty
Год выпуска: 1992
Производство: США
Жанр: боевик, комедия, приключения
Продолжительность: 01:40:53
Перевод: Авторский (одноголосый, закадровый) Алексей Михалёв
Перевод: Профессиональный (многоголосый, закадровый) MVO
Оригинальный аудиопоток: английский
Субтитры: отсутствуют
Режиссер: Чарльз Мартин Смит / Charles Martin Smith
В ролях: Питер Уэллер, Роберт Хэйс, Чарльз Мартин Смит, Рамона Рахман, Кэй Тонг Лим, Дом Магуили
Описание: Джейк и Френк с группой необученных партизан отправляются свергать Южноазиатского диктатора. Один руководит боевиками, другой всех развлекает, и оба участвуют в многочисленных приключениях
Борясь с обстоятельствами и с собой, эти два парня становятся теми, кем они никогда и не думали стать — героями.
, КиноПоиск
Качество видео: DVDRip-AVC
Контейнер: MKV
Видео кодек: H.264
Аудио кодек: AC3
Видео: 640x480, 23.976fps, 1933 Kbps, 0.262 bt/px
Аудио : AC-3, 192 Kbps, 2 ch, 48.0 KHz Rus Михалёв
Аудио : AC-3, 192 Kbps, 2 ch, 48.0 KHz Rus MVO
Аудио : AC-3, 192 Kbps, 2 ch, 48.0 KHz Eng Original

Доп. информация

За многоголоску спасибо Fikaloid.

Media Info

J:\Fifty_Fifty_[Pirat.ca].torrent.mkv
General
Unique ID : 206069568919360992912130471340159507290 (0x9B078E2AD1D7611B968FB6E05BD39B5A)
Complete name : J:\Fifty_Fifty_[Pirat.ca].torrent.mkv
Format : Matroska
Format version : Version 1
File size : 1.80 GiB
Duration : 1h 40mn
Overall bit rate : 2 556 Kbps
Encoded date : UTC 2015-01-09 08:45:56
Writing application : mkvmerge v2.5.3 ('Boogie') built on Mar 7 2009 15:00:41
Writing library : libebml v0.7.7 + libmatroska v0.8.1
Video #1
ID : 1
Format : AVC
Format/Info : Advanced Video Codec
Format profile : [email protected]
Format settings, CABAC : Yes
Format settings, ReFrames : 9 frames
Codec ID : V_MPEG4/ISO/AVC
Duration : 1h 40mn
Bit rate : 1 929 Kbps
Width : 640 pixels
Height : 480 pixels
Display aspect ratio : 4:3
Frame rate mode : Constant
Frame rate : 23.976 fps
Color space : YUV
Chroma subsampling : 4:2:0
Bit depth : 8 bits
Scan type : Progressive
Bits/(Pixel*Frame) : 0.262
Stream size : 1.36 GiB (75%)
Writing library : x264 core 130 r2273 b3065e6
Encoding settings : cabac=1 / ref=9 / deblock=1:-3:-3 / analyse=0x3:0x133 / me=umh / subme=11 / psy=1 / psy_rd=1.00:0.05 / mixed_ref=1 / me_range=24 / chroma_me=1 / trellis=2 / 8x8dct=1 / cqm=0 / deadzone=21,11 / fast_pskip=1 / chroma_qp_offset=-3 / threads=6 / lookahead_threads=1 / sliced_threads=0 / nr=0 / decimate=1 / interlaced=0 / bluray_compat=0 / constrained_intra=0 / bframes=8 / b_pyramid=2 / b_adapt=2 / b_bias=0 / direct=1 / weightb=1 / open_gop=0 / weightp=2 / keyint=250 / keyint_min=23 / scenecut=40 / intra_refresh=0 / rc_lookahead=50 / rc=crf / mbtree=1 / crf=17.5 / qcomp=0.60 / qpmin=0 / qpmax=51 / qpstep=4 / ip_ratio=1.40 / aq=1:1.00
Language : English
Default : Yes
Forced : No
Audio #2
ID : 2
Format : AC-3
Format/Info : Audio Coding 3
Format profile : Dolby Digital
Mode extension : CM (complete main)
Format settings, Endianness : Big
Codec ID : A_AC3
Duration : 1h 40mn
Bit rate mode : Constant
Bit rate : 192 Kbps
Channel(s) : 2 channels
Channel positions : Front: L R
Sampling rate : 48.0 KHz
Bit depth : 16 bits
Compression mode : Lossy
Delay relative to video : 66ms
Stream size : 139 MiB (8%)
Title : AVO Михалёв
Language : Russian
Default : Yes
Forced : No
Audio #3
ID : 3
Format : AC-3
Format/Info : Audio Coding 3
Mode extension : CM (complete main)
Format settings, Endianness : Big
Codec ID : A_AC3
Duration : 1h 40mn
Bit rate mode : Constant
Bit rate : 192 Kbps
Channel(s) : 2 channels
Channel positions : Front: L R
Sampling rate : 48.0 KHz
Bit depth : 16 bits
Compression mode : Lossy
Stream size : 139 MiB (8%)
Title : MVO
Language : Russian
Default : No
Forced : No
Audio #4
ID : 4
Format : AC-3
Format/Info : Audio Coding 3
Mode extension : CM (complete main)
Format settings, Endianness : Big
Codec ID : A_AC3
Duration : 1h 40mn
Bit rate mode : Constant
Bit rate : 192 Kbps
Channel(s) : 2 channels
Channel positions : Front: L R
Sampling rate : 48.0 KHz
Bit depth : 16 bits
Compression mode : Lossy
Delay relative to video : 66ms
Stream size : 139 MiB (8%)
Language : English
Default : No
Forced : No

Скриншоты

Яндекс.Метрика
Рейтинг@Mail.ru