Особо опасный преступник / Most Wanted (Дэвид Хоган / David Hogan) [1997 г., Боевик, Триллер, DVDRip-AVC] AVO (Василий Горчаков, Юрий Живов) + original (Eng)

 

Создавать темы 12-Янв-2015 06:51

Особо опасный преступник / Most Wanted
Год выпуска: 1997
Производство: США
Жанр: Боевик, Триллер
Продолжительность: 01:38:55
Перевод: Авторский (одноголосый, закадровый) Василий Горчаков
Перевод: Авторский (одноголосый, закадровый) Юрий Живов
Оригинальный аудиопоток: английский
Субтитры: отсутствуют
Режиссер: Дэвид Хоган / David Hogan
В ролях: Кинен Айвори Уайанс, Роберт Котечки, Рик Крамер, Пол Сорвино, Кенн Уайтакер, Вольфганг Бодисон, Джон Войт, Эдди Велес, Майкл Марич, Саймон Бейкер, Джилл Хеннесси, Эрик Робертс
Описание: Джеймс Данн, снайпер морской пехоты, участник войны в Ираке, отказался выстрелить в десятилетнего мальчишку и случайно убил сержанта, заставлявшего его это сделать. Данна приговорили к смертной казни, но из тюрьмы он был выкран и получил предложение работать в секретном правительственном подразделении подполковника Кейси.
Вынужденный согласиться, Джеймс получил первое задание: ликвидировать известного промышленника во время открытия госпиталя для ветеранов. Но до выстрела Данна раздался другой выстрел, сразивший первую леди — жену президента, присутствовавшую на церемонии. Очень быстро Данн понял, что его подставили, чтобы выдать за убийцу-одиночку. Преследуемый врагами, он начинает самостоятельное расследование, в котором ему помогает молодая врач, случайно заснявшая на видео настоящего убийцу.
, КиноПоиск
Качество видео: DVDRip-AVC
Контейнер: MKV
Видео кодек: H.264
Аудио кодек: AC3
Видео: 720x304, 23.976fps, 1713Kbps, 0.326 bt/px
Аудио : AC-3, 192 Kbps, 2 ch, 48.0 KHz Rus Горчаков
Аудио : AC-3, 384 Kbps, 6 ch, 48.0 KHz Rus Живов
Аудио : AC-3, 384 Kbps, 6 ch, 48.0 KHz Eng Original

Media Info

G:\загрузки\Most_Wanted_[Pirat.ca].torrent.mkv
General
Unique ID : 244491320918591341919128746073317638097 (0xB7EF50CBD0FB414F924B4C9B306EFFD1)
Complete name : G:\загрузки\Most_Wanted_[Pirat.ca].torrent.mkv
Format : Matroska
Format version : Version 1
File size : 1.84 GiB
Duration : 1h 38mn
Overall bit rate : 2 658 Kbps
Encoded date : UTC 2015-01-05 20:21:00
Writing application : mkvmerge v2.5.3 ('Boogie') built on Mar 7 2009 15:00:41
Writing library : libebml v0.7.7 + libmatroska v0.8.1
Video #1
ID : 1
Format : AVC
Format/Info : Advanced Video Codec
Format profile : [email protected]
Format settings, CABAC : Yes
Format settings, ReFrames : 12 frames
Codec ID : V_MPEG4/ISO/AVC
Duration : 1h 38mn
Bit rate : 1 713 Kbps
Width : 720 pixels
Height : 304 pixels
Display aspect ratio : 2.35:1
Frame rate mode : Constant
Frame rate : 23.976 fps
Color space : YUV
Chroma subsampling : 4:2:0
Bit depth : 8 bits
Scan type : Progressive
Bits/(Pixel*Frame) : 0.326
Stream size : 1.14 GiB (62%)
Writing library : x264 core 130 r2273 b3065e6
Encoding settings : cabac=1 / ref=12 / deblock=1:-3:-3 / analyse=0x3:0x133 / me=umh / subme=11 / psy=1 / psy_rd=1.00:0.05 / mixed_ref=1 / me_range=24 / chroma_me=1 / trellis=2 / 8x8dct=1 / cqm=0 / deadzone=21,11 / fast_pskip=0 / chroma_qp_offset=-3 / threads=4 / lookahead_threads=4 / sliced_threads=0 / nr=0 / decimate=0 / interlaced=0 / bluray_compat=0 / constrained_intra=0 / bframes=8 / b_pyramid=2 / b_adapt=2 / b_bias=0 / direct=1 / weightb=1 / open_gop=0 / weightp=2 / keyint=250 / keyint_min=23 / scenecut=40 / intra_refresh=0 / rc_lookahead=40 / rc=abr / mbtree=1 / bitrate=1713 / ratetol=1.0 / qcomp=0.60 / qpmin=0 / qpmax=69 / qpstep=4 / ip_ratio=1.40 / aq=1:1.00
Language : English
Default : Yes
Forced : No
Audio #2
ID : 2
Format : AC-3
Format/Info : Audio Coding 3
Mode extension : CM (complete main)
Format settings, Endianness : Big
Codec ID : A_AC3
Duration : 1h 38mn
Bit rate mode : Constant
Bit rate : 192 Kbps
Channel(s) : 2 channels
Channel positions : Front: L R
Sampling rate : 48.0 KHz
Bit depth : 16 bits
Compression mode : Lossy
Stream size : 136 MiB (7%)
Title : AVO Горчаков
Language : Russian
Default : Yes
Forced : No
Audio #3
ID : 3
Format : AC-3
Format/Info : Audio Coding 3
Mode extension : CM (complete main)
Format settings, Endianness : Big
Codec ID : A_AC3
Duration : 1h 38mn
Bit rate mode : Constant
Bit rate : 384 Kbps
Channel(s) : 6 channels
Channel positions : Front: L C R, Side: L R, LFE
Sampling rate : 48.0 KHz
Bit depth : 16 bits
Compression mode : Lossy
Stream size : 272 MiB (14%)
Title : AVO Живов
Language : Russian
Default : No
Forced : No
Audio #4
ID : 4
Format : AC-3
Format/Info : Audio Coding 3
Mode extension : CM (complete main)
Format settings, Endianness : Big
Codec ID : A_AC3
Duration : 1h 38mn
Bit rate mode : Constant
Bit rate : 384 Kbps
Channel(s) : 6 channels
Channel positions : Front: L C R, Side: L R, LFE
Sampling rate : 48.0 KHz
Bit depth : 16 bits
Compression mode : Lossy
Stream size : 272 MiB (14%)
Language : English
Default : No
Forced : No

Скриншоты

Яндекс.Метрика
Рейтинг@Mail.ru