Кто я? / Ngo si seoi (Джеки Чан / Jackie Chan, Бенни Чан / Benny Chan) [1998 г., боевик, триллер, комедия, приключения, WEB-DL, 720p] AVO (Живов, Горчаков, Кашкин) + original (Chi)

 

Создавать темы 12-Янв-2015 06:50

Кто я? / Ngo si seoi
Год выпуска: 1998
Производство: Гонконг
Жанр: боевик, триллер, комедия, приключения
Продолжительность: 01:47:59
Перевод: Авторский (одноголосый, закадровый) Юрий Живов
Перевод: Авторский (одноголосый, закадровый) Василий Горчаков
Перевод: Авторский (одноголосый, закадровый) Аександр Кашкин
Оригинальный аудиопоток: китайский
Субтитры: отсутствуют
Режиссер: Джеки Чан / Jackie Chan, Бенни Чан / Benny Chan
В ролях: Джеки Чан, Мишель Ферре, Мираи Ямамото, Рон Смержак, Эд Нелсон, Том Ромперт, Глори Саймон
Описание: Группа спецназа, работающая под прикрытием ЦРУ, направляется на задание по вывозу энергетического тела, которое было найдено учеными в африканских джунглях. По окончании операции всю группу пытаются ликвидировать.
Один из солдат, выживший после авиакатастрофы, но потерявший память, пытается бороться со своими мыслями и вспомнить, кто он. На пути к истине ему мешают, и он не знает, кому можно верить.
, КиноПоиск
Качество видео: WEB-DL
Контейнер: MKV
Стандарт разрешения: 720p
Видео кодек: H.264
Аудио кодек: AC3
Видео: 1278x720, 23.976 fps, 4061 Kbps, 0.184 Bt/Px
Аудио : AC-3, 256 Kbps, 2 ch, 41.0 KHz Rus Живов
Аудио : AC-3, 256 Kbps, 2 ch, 41.0 KHz Rus Горчаков
Аудио : AC-3, 256 Kbps, 2 ch, 41.0 KHz Rus Кашкин
Аудио : AC-3, 384 Kbps, 6 ch, 48.0 KHz Chi Original

Media Info

H:\КИНОФИЛЬМЫ\Who_am_i.mkv
General
Unique ID : 171913275046628738918017385005553582557 (0x81554ADC5D5B7CD19EEE2315764881DD)
Complete name : H:\КИНОФИЛЬМЫ\Who_am_i.mkv
Format : Matroska
Format version : Version 1
File size : 4.01 GiB
Duration : 1h 47mn
Overall bit rate : 5 319 Kbps
Movie name : Who am I_RollHD
Encoded date : UTC 2015-01-06 19:00:24
Writing application : mkvmerge v2.5.3 ('Boogie') built on Mar 7 2009 15:00:41
Writing library : libebml v0.7.7 + libmatroska v0.8.1
Video #1
ID : 1
Format : AVC
Format/Info : Advanced Video Codec
Format profile : [email protected]
Format settings, CABAC : No
Format settings, ReFrames : 2 frames
Codec ID : V_MPEG4/ISO/AVC
Duration : 1h 47mn
Bit rate : 4 061 Kbps
Width : 1 278 pixels
Height : 720 pixels
Display aspect ratio : 16:9
Frame rate mode : Constant
Frame rate : 23.976 fps
Color space : YUV
Chroma subsampling : 4:2:0
Bit depth : 8 bits
Scan type : Progressive
Bits/(Pixel*Frame) : 0.184
Stream size : 3.06 GiB (76%)
Language : Chinese
Default : Yes
Forced : No
Color primaries : BT.709
Transfer characteristics : BT.709
Matrix coefficients : BT.709
Audio #2
ID : 2
Format : AC-3
Format/Info : Audio Coding 3
Mode extension : CM (complete main)
Format settings, Endianness : Big
Codec ID : A_AC3
Duration : 1h 47mn
Bit rate mode : Constant
Bit rate : 256 Kbps
Channel(s) : 2 channels
Channel positions : Front: L R
Sampling rate : 44.1 KHz
Bit depth : 16 bits
Compression mode : Lossy
Delay relative to video : 1s 0ms
Stream size : 198 MiB (5%)
Title : AVO Живов
Language : Russian
Default : Yes
Forced : No
Audio #3
ID : 3
Format : AC-3
Format/Info : Audio Coding 3
Mode extension : CM (complete main)
Format settings, Endianness : Big
Codec ID : A_AC3
Duration : 1h 47mn
Bit rate mode : Constant
Bit rate : 256 Kbps
Channel(s) : 2 channels
Channel positions : Front: L R
Sampling rate : 44.1 KHz
Bit depth : 16 bits
Compression mode : Lossy
Delay relative to video : 1s 0ms
Stream size : 198 MiB (5%)
Title : AVO Горчаков
Language : Russian
Default : No
Forced : No
Audio #4
ID : 4
Format : AC-3
Format/Info : Audio Coding 3
Mode extension : CM (complete main)
Format settings, Endianness : Big
Codec ID : A_AC3
Duration : 1h 47mn
Bit rate mode : Constant
Bit rate : 256 Kbps
Channel(s) : 2 channels
Channel positions : Front: L R
Sampling rate : 44.1 KHz
Bit depth : 16 bits
Compression mode : Lossy
Delay relative to video : 1s 0ms
Stream size : 198 MiB (5%)
Title : AVO Кашкин
Language : Russian
Default : No
Forced : No
Audio #5
ID : 5
Format : AC-3
Format/Info : Audio Coding 3
Mode extension : CM (complete main)
Format settings, Endianness : Big
Codec ID : A_AC3
Duration : 1h 47mn
Bit rate mode : Constant
Bit rate : 384 Kbps
Channel(s) : 6 channels
Channel positions : Front: L C R, Side: L R, LFE
Sampling rate : 48.0 KHz
Bit depth : 16 bits
Compression mode : Lossy
Delay relative to video : 1s 0ms
Stream size : 297 MiB (7%)
Language : Chinese
Default : No
Forced : No

Скриншоты

Яндекс.Метрика
Рейтинг@Mail.ru