Ночь страшного суда / Judgment Night (Стивен Хопкинс / Stephen Hopkins) [1993 г., боевик, триллер, криминал, DVDRip-AVC] AVO (Живов, Дохалов, Визгунов) + original (Eng)

 

Создавать темы 12-Янв-2015 06:18

Ночь страшного суда / Judgment Night
Год выпуска: 1993
Производство: США, Япония
Жанр: боевик, триллер, криминал
Продолжительность: 01:45:11
Перевод: Авторский (одноголосый, закадровый) Юрий Живов, Вартан Дохалов, Сергей Визгунов
Оригинальный аудиопоток: английский
Субтитры: отсутствуют
Режиссер: Стивен Хопкинс / Stephen Hopkins
В ролях: Эмилио Эстевес, Кьюба Гудинг мл., Дэнис Лири, Стивен Дорфф, Джереми Пивен, Питер Грин, Эрик Шроди, Майкл Уайзмен, Майкл ДеЛоренцо, Релиуэс Уэбб
Описание: Началом этой истории была попытка объехать автомобильную пробку. Это вылилось в отчаянную борьбу за выживание.
, КиноПоиск
Качество видео: DVDRip-AVC
Контейнер: MKV
Видео кодек: H.264
Аудио кодек: AC3
Видео: 720x304, 25.000 fps, 1783 Kbps, 0.326 bt/px
Аудио : AC-3, 192 Kbps, 2 ch, 48.0 KHz Rus Живов
Аудио : AC-3, 192 Kbps, 2 ch, 48.0 KHz Rus Дохалов
Аудио : AC-3, 192 Kbps, 2 ch, 48.0 KHz Rus Визгунов
Аудио : AC-3, 448 Kbps, 6 ch, 48.0 KHz Eng Original

Media Info

G:\загрузки\Judgment Night_[Pirat.ca].torrent.mkv
General
Unique ID : 192150700774474927750607832428690455695 (0x908EE0FC0763B332851B4EB9B166BC8F)
Complete name : G:\загрузки\Judgment Night_[Pirat.ca].torrent.mkv
Format : Matroska
Format version : Version 1
File size : 2.05 GiB
Duration : 1h 45mn
Overall bit rate : 2 794 Kbps
Encoded date : UTC 2014-10-02 12:35:31
Writing application : mkvmerge v2.5.3 ('Boogie') built on Mar 7 2009 15:00:41
Writing library : libebml v0.7.7 + libmatroska v0.8.1
Video #1
ID : 1
Format : AVC
Format/Info : Advanced Video Codec
Format profile : [email protected]
Format settings, CABAC : Yes
Format settings, ReFrames : 11 frames
Codec ID : V_MPEG4/ISO/AVC
Duration : 1h 45mn
Bit rate : 1 783 Kbps
Width : 720 pixels
Height : 304 pixels
Display aspect ratio : 2.35:1
Frame rate mode : Constant
Frame rate : 25.000 fps
Color space : YUV
Chroma subsampling : 4:2:0
Bit depth : 8 bits
Scan type : Progressive
Bits/(Pixel*Frame) : 0.326
Stream size : 1.26 GiB (61%)
Writing library : x264 core 130 r2273 b3065e6
Encoding settings : cabac=1 / ref=11 / deblock=1:-2:-1 / analyse=0x3:0x133 / me=umh / subme=11 / psy=1 / psy_rd=1.00:0.05 / mixed_ref=1 / me_range=24 / chroma_me=1 / trellis=2 / 8x8dct=1 / cqm=0 / deadzone=21,11 / fast_pskip=0 / chroma_qp_offset=-3 / threads=4 / lookahead_threads=4 / sliced_threads=0 / nr=0 / decimate=0 / interlaced=0 / bluray_compat=0 / constrained_intra=0 / bframes=7 / b_pyramid=2 / b_adapt=2 / b_bias=0 / direct=1 / weightb=1 / open_gop=0 / weightp=2 / keyint=250 / keyint_min=23 / scenecut=40 / intra_refresh=0 / rc_lookahead=40 / rc=abr / mbtree=1 / bitrate=1783 / ratetol=1.0 / qcomp=0.60 / qpmin=0 / qpmax=69 / qpstep=4 / ip_ratio=1.40 / aq=1:1.00
Language : English
Default : Yes
Forced : No
Audio #2
ID : 2
Format : AC-3
Format/Info : Audio Coding 3
Mode extension : CM (complete main)
Format settings, Endianness : Big
Codec ID : A_AC3
Duration : 1h 45mn
Bit rate mode : Constant
Bit rate : 192 Kbps
Channel(s) : 2 channels
Channel positions : Front: L R
Sampling rate : 48.0 KHz
Bit depth : 16 bits
Compression mode : Lossy
Stream size : 144 MiB (7%)
Title : AVO Живов
Language : Russian
Default : Yes
Forced : No
Audio #3
ID : 3
Format : AC-3
Format/Info : Audio Coding 3
Mode extension : CM (complete main)
Format settings, Endianness : Big
Codec ID : A_AC3
Duration : 1h 45mn
Bit rate mode : Constant
Bit rate : 192 Kbps
Channel(s) : 2 channels
Channel positions : Front: L R
Sampling rate : 48.0 KHz
Bit depth : 16 bits
Compression mode : Lossy
Stream size : 144 MiB (7%)
Title : AVO Дохалов
Language : Russian
Default : No
Forced : No
Audio #4
ID : 4
Format : AC-3
Format/Info : Audio Coding 3
Mode extension : CM (complete main)
Format settings, Endianness : Big
Codec ID : A_AC3
Duration : 1h 45mn
Bit rate mode : Constant
Bit rate : 192 Kbps
Channel(s) : 2 channels
Channel positions : Front: L R
Sampling rate : 48.0 KHz
Bit depth : 16 bits
Compression mode : Lossy
Stream size : 144 MiB (7%)
Title : AVO Визгунов
Language : Russian
Default : No
Forced : No
Audio #5
ID : 5
Format : AC-3
Format/Info : Audio Coding 3
Mode extension : CM (complete main)
Format settings, Endianness : Big
Codec ID : A_AC3
Duration : 1h 45mn
Bit rate mode : Constant
Bit rate : 448 Kbps
Channel(s) : 6 channels
Channel positions : Front: L C R, Side: L R, LFE
Sampling rate : 48.0 KHz
Bit depth : 16 bits
Compression mode : Lossy
Stream size : 337 MiB (16%)
Language : English
Default : No
Forced : No

Скриншоты

Яндекс.Метрика
Рейтинг@Mail.ru