Особь / Species (Роджер Дональдсон / Roger Donaldson) [1995 г., ужасы, фантастика, боевик, BDRip, 720p] AVO (Живов, Гаврилов, Хрусталёв) + MVO + original (Eng)

 

Создавать темы 12-Янв-2015 06:16

Особь / Species
Год выпуска: 1995
Производство: США
Жанр: ужасы, фантастика, боевик
Продолжительность: 01:48:30
Перевод: Авторский (одноголосый, закадровый) Юрий Живов, Андрей Гаврилов, Егор Хрусталёв
Перевод: Профессиональный (многоголосый, закадровый)
Оригинальный аудиопоток: английский
Субтитры: отсутствуют
Режиссер: Роджер Дональдсон / Roger Donaldson
В ролях: Бен Кингсли, Майкл Мэдсен, Альфред Молина, Форест Уитакер, Марж Хелгенбергер, Уип Хабли, Мишель Уильямс, Наташа Хенстридж, Скотт МакКенна, Дон Фишер
Описание: В сверхсекретном научном центре получили из космоса формулу ДНК, которая была воспроизведена и скрещена с женской. В результате получился ребенок, девочка, которая росла не по дням, а по часам. И даже не по часам, а по минутам.
Напуганные результатами эксперимента, ученые решили уничтожить подопытное существо, но оно сбежало, разбив пуленепробиваемое стекло. А существо из девушки уже превратилось в женщину с очень сексапильной внешностью и жаждало размножаться, к чему и приступило. Но внутри у нее таилось ужасающее чудовище, котоpoe убивало после спаривания самцов
Для ее поимки была создана специальная группа экспертов, которая пошла по кровавому следу одержимой материнским инстинктом самки из космоса…
, КиноПоиск
Качество видео: BDRip
Контейнер: MKV
Стандарт разрешения: 720p
Видео кодек: H.264
Аудио кодек: AC3
Видео: 1280x546, 23.976 fps, 4287 Kbps, 0.256 Bt/Px
Аудио : AC-3, 384 Kbps, 6 ch, 48.0 KHz Rus Живов
Аудио : AC-3, 448 Kbps, 6 ch, 48.0 KHz Rus Гаврилов
Аудио : AC-3, 448 Kbps, 6 ch, 48.0 KHz Rus Хрусталёв
Аудио : AC-3, 448 Kbps, 6 ch, 48.0 KHz Rus MVO
Аудио : AC-3, 448 Kbps, 6 ch, 48.0 KHz Eng Original

Media Info

G:\загрузки\Species_[Pirat.ca].torrent.mkv
General
Unique ID : 211131551255285691346002561772209103060 (0x9ED6752A4DAA2D628EFBBA884E8CE0D4)
Complete name : G:\загрузки\Species_[Pirat.ca].torrent.mkv
Format : Matroska
Format version : Version 1
File size : 5.00 GiB
Duration : 1h 48mn
Overall bit rate : 6 594 Kbps
Movie name : Патруль времени | Timecop [1994] -= BDRip (720p) by 0ptimus =-
Encoded date : UTC 2015-01-09 21:58:55
Writing application : mkvmerge v2.5.3 ('Boogie') built on Mar 7 2009 15:00:41
Writing library : libebml v0.7.7 + libmatroska v0.8.1
Video #1
ID : 1
Format : AVC
Format/Info : Advanced Video Codec
Format profile : [email protected]
Format settings, CABAC : Yes
Format settings, ReFrames : 12 frames
Codec ID : V_MPEG4/ISO/AVC
Duration : 1h 48mn
Bit rate : 4 287 Kbps
Width : 1 280 pixels
Height : 546 pixels
Display aspect ratio : 2.35:1
Frame rate mode : Constant
Frame rate : 23.976 fps
Color space : YUV
Chroma subsampling : 4:2:0
Bit depth : 8 bits
Scan type : Progressive
Bits/(Pixel*Frame) : 0.256
Stream size : 3.25 GiB (65%)
Writing library : x264 core 130 r2273 b3065e6
Encoding settings : cabac=1 / ref=12 / deblock=1:-3:-3 / analyse=0x3:0x133 / me=umh / subme=11 / psy=1 / psy_rd=1.00:0.15 / mixed_ref=1 / me_range=32 / chroma_me=1 / trellis=2 / 8x8dct=1 / cqm=0 / deadzone=21,11 / fast_pskip=1 / chroma_qp_offset=-3 / threads=6 / lookahead_threads=1 / sliced_threads=0 / nr=0 / decimate=1 / interlaced=0 / bluray_compat=0 / constrained_intra=0 / bframes=8 / b_pyramid=2 / b_adapt=2 / b_bias=0 / direct=1 / weightb=1 / open_gop=0 / weightp=2 / keyint=250 / keyint_min=23 / scenecut=40 / intra_refresh=0 / rc_lookahead=50 / rc=crf / mbtree=1 / crf=18.0 / qcomp=0.60 / qpmin=0 / qpmax=51 / qpstep=4 / ip_ratio=1.40 / aq=1:1.00
Language : English
Default : Yes
Forced : No
Audio #2
ID : 2
Format : AC-3
Format/Info : Audio Coding 3
Mode extension : CM (complete main)
Format settings, Endianness : Big
Codec ID : A_AC3
Duration : 1h 48mn
Bit rate mode : Constant
Bit rate : 384 Kbps
Channel(s) : 6 channels
Channel positions : Front: L C R, Side: L R, LFE
Sampling rate : 48.0 KHz
Bit depth : 16 bits
Compression mode : Lossy
Stream size : 298 MiB (6%)
Title : AVO Живов
Language : Russian
Default : Yes
Forced : No
Audio #3
ID : 3
Format : AC-3
Format/Info : Audio Coding 3
Mode extension : CM (complete main)
Format settings, Endianness : Big
Codec ID : A_AC3
Duration : 1h 48mn
Bit rate mode : Constant
Bit rate : 448 Kbps
Channel(s) : 6 channels
Channel positions : Front: L C R, Side: L R, LFE
Sampling rate : 48.0 KHz
Bit depth : 16 bits
Compression mode : Lossy
Stream size : 348 MiB (7%)
Title : AVO Гаврилов
Language : Russian
Default : No
Forced : No
Audio #4
ID : 4
Format : AC-3
Format/Info : Audio Coding 3
Mode extension : CM (complete main)
Format settings, Endianness : Big
Codec ID : A_AC3
Duration : 1h 48mn
Bit rate mode : Constant
Bit rate : 448 Kbps
Channel(s) : 6 channels
Channel positions : Front: L C R, Side: L R, LFE
Sampling rate : 48.0 KHz
Bit depth : 16 bits
Compression mode : Lossy
Stream size : 348 MiB (7%)
Title : AVO Хрусталёв
Language : Russian
Default : No
Forced : No
Audio #5
ID : 5
Format : AC-3
Format/Info : Audio Coding 3
Mode extension : CM (complete main)
Format settings, Endianness : Big
Codec ID : A_AC3
Duration : 1h 48mn
Bit rate mode : Constant
Bit rate : 448 Kbps
Channel(s) : 6 channels
Channel positions : Front: L C R, Side: L R, LFE
Sampling rate : 48.0 KHz
Bit depth : 16 bits
Compression mode : Lossy
Stream size : 348 MiB (7%)
Title : MVO
Language : Russian
Default : No
Forced : No
Audio #6
ID : 6
Format : AC-3
Format/Info : Audio Coding 3
Mode extension : CM (complete main)
Format settings, Endianness : Big
Codec ID : A_AC3
Duration : 1h 48mn
Bit rate mode : Constant
Bit rate : 448 Kbps
Channel(s) : 6 channels
Channel positions : Front: L C R, Side: L R, LFE
Sampling rate : 48.0 KHz
Bit depth : 16 bits
Compression mode : Lossy
Stream size : 348 MiB (7%)
Language : English
Default : No
Forced : No

log x.264

x264 [info]: frame I:1032  Avg QP:15.86  size:103549
x264 [info]: frame P:34046 Avg QP:19.23 size: 39115
x264 [info]: frame B:120896 Avg QP:20.68 size: 17813
x264 [info]: consecutive B-frames: 1.9% 2.2% 6.2% 25.2% 19.9% 35.3% 5.0% 3.1% 1.1%
x264 [info]: mb I I16..4: 8.3% 76.7% 15.0%
x264 [info]: mb P I16..4: 0.9% 15.3% 1.7% P16..4: 29.8% 36.9% 10.6% 1.2% 0.1% skip: 3.6%
x264 [info]: mb B I16..4: 0.1% 2.4% 0.2% B16..8: 40.9% 23.7% 3.9% direct: 7.0% skip:21.7% L0:45.7% L1:44.2% BI:10.1%
x264 [info]: 8x8 transform intra:85.6% inter:64.6%
x264 [info]: coded y,uvDC,uvAC intra: 90.9% 87.9% 60.2% inter: 41.8% 38.0% 4.9%
x264 [info]: i16 v,h,dc,p: 42% 8% 9% 41%
x264 [info]: i8 v,h,dc,ddl,ddr,vr,hd,vl,hu: 12% 6% 7% 10% 14% 13% 13% 11% 13%
x264 [info]: i4 v,h,dc,ddl,ddr,vr,hd,vl,hu: 30% 6% 4% 7% 12% 12% 11% 9% 9%
x264 [info]: i8c dc,h,v,p: 38% 24% 19% 19%
x264 [info]: Weighted P-Frames: Y:8.8% UV:5.5%
x264 [info]: ref P L0: 38.7% 9.8% 18.9% 7.0% 6.4% 4.3% 4.3% 2.3% 2.4% 1.8% 1.9% 1.6% 0.4% 0.0%
x264 [info]: ref B L0: 68.3% 12.6% 6.2% 3.5% 2.5% 2.2% 1.7% 1.2% 1.0% 0.6% 0.3%
x264 [info]: ref B L1: 92.8% 7.2%
x264 [info]: kb/s:4417.43
x264 [total]: encoded 155974 frames, 3.91 fps, 4417.43 kb/s

Скриншоты

Яндекс.Метрика
Рейтинг@Mail.ru