Винни Пух: Рождественский Пух / Winnie the Pooh: A Very Merry Pooh Year (Тед Хеннинг, Карл Джеерс / Ted Henning, Karl Geurs) [2002 г., мультфильм, приключения, семейный, BDRip] AVO (Андрей Гаврилов)

 

Создавать темы 12-Янв-2015 06:08

Винни Пух: Рождественский Пух / Winnie the Pooh: A Very Merry Pooh Year -Год выпуска: 2002
Производство: США
Жанр: мультфильм, приключения, семейный
Продолжительность: 01:03:52
Перевод: Авторский (одноголосый, закадровый) Андрей Гаврилов
Субтитры: отсутствуют
Режиссер: Тед Хеннинг, Карл Джеерс / Ted Henning, Karl Geurs
В лес пришло Рождество и веселая компания: Тигра, Пух, Ослик, кенгуренок Крошка Ру не могут пропустить такой праздник. И, как всегда, любое мероприятие у этой компании не может пройти без приключений.

Качество видео: BDRip
Контейнер: AVI
Видео кодек: XviD
Аудио кодек: AC3
Видео: 704x528 (1.33:1), 23.976 fps, XviD build 73 ~1880 kbps avg, 0.21 bit/pixel
Аудио : 48 kHz, AC3 Dolby Digital, 2/0 (L,R) ch, ~320.00 kbps avg - Гаврилов Андрей

Доп. информация

За перевод Андрея Гаврилова спасибо всем участникам Народного проекта сайтов widescreen и E-180: foxlight, bla_, ZeDOK, Guyver, uchitel538, xerman13, kondratzx, duckling, Kastro, Водолей, nimph, multmir, masta, pestel, GVR232, chontvari, luka69.
Исходник: Blu-ray Disc (Custom) 1080p - GVR232

Media Info

Видео
Идентификатор : 0
Формат : MPEG-4 Visual
Профиль формата : Advanced [email protected]
Параметр BVOP формата : 1
Параметр QPel формата : Нет
Параметр GMC формата : Без точки перехода
Параметр матрицы формата : Выборочная
Идентификатор кодека : XVID
Идентификатор кодека/Подсказка : XviD
Продолжительность : 1 ч. 3 м.
Битрейт : 1880 Кбит/сек
Ширина : 704 пикселя
Высота : 528 пикселей
Соотношение сторон : 4:3
Частота кадров : 23,976 кадра/сек
Цветовое пространство : YUV
Субдискретизация насыщенности : 4:2:0
Битовая глубина : 8 бит
Тип развёртки : Прогрессивная
Метод сжатия : С потерями
Бит/(Пиксели*Кадры) : 0.211
Размер потока : 859 Мбайт (85%)
Библиотека кодирования : XviD 73
Аудио
Идентификатор : 1
Формат : AC-3
Формат/Информация : Audio Coding 3
Расширение режима : CM (complete main)
Параметр Endianness формата : Big
Идентификатор кодека : 2000
Продолжительность : 1 ч. 3 м.
Вид битрейта : Постоянный
Битрейт : 320 Кбит/сек
Каналы : 2 канала
Расположение каналов : Front: L R
Частота : 48,0 КГц
Битовая глубина : 16 бит
Метод сжатия : С потерями
Размер потока : 146 Мбайт (14%)
Выравнивание : Разделение по промежуткам
Продолжительность промежутка : 42 мс. (1,00 видеокадр)
Время предзагрузки промежутка : 500 мс.

Скриншоты

Яндекс.Метрика
Рейтинг@Mail.ru