Гордость / Pride (Мэттью Уорчас / Matthew Warchus) [2014 г., драма, комедия, BDRip, 720p] VO (PashaUp) + Sub (Rus, Eng) + Original (Eng)

 

Создавать темы 12-Янв-2015 06:01

-Гордость / Pride- Производство: Великобритания
Год выпуска: 2014 г.
Жанр: драма, комедия
Продолжительность: 02:01:20
Мировая премьера: 23 мая 2014
Перевод: Любительский (одноголосый, закадровый) [Павел Морозов aka PashaUp]
Оригинальный аудиопоток: английский-Режиссер: Мэттью Уорчас / Matthew Warchus
В ролях: Бен Шнетцер, Абрам Руни, Джим МакМанус, Джордж МакКэй, Моника Долан, Мэттью Флинн, Эндрю Скотт, Джозеф Гилган, Фэй Марсей, Фредди Фокс-Описание: Действие фильма разворачивается в 1984 году, во время правления Маргарет Тэтчер и в разгар забастовки шахтеров.
Картина расскажет о группе геев и лесбиянок, участвующих в лондонском гей-параде и принимающих решение собрать деньги в поддержку семей бастующих горняков. Когда же профсоюз шахтеров стесняется принять собранные средства из рук представителей нетрадиционной сексуальной ориентации, те не сдаются и отправляются на микроавтобусе в шахтерский поселок, находящийся в Уэльсе, чтобы лично осуществить акт благотворительности- -Качество видео: BDRip
Контейнер: MKV
Стандарт разрешения: 720p
Видео кодек: Другой MPEG4
Аудио кодек: AC3
Видео: 1280x536, 4 551 Kbps, 23.976 fps, 0.277 bit/pix
Аудио: 448 Kbps, 6 ch, 48.0 KHz - Rus
Аудио #2: 640 Kbps, 6 ch, 48.0 KHz - Eng
Cубтитры: Russian, English
Формат субтитров: softsub (SRT)

Media Info

General
Unique ID : 250147458458856333758376431784275515222 (0xBC30A5E84C23D388B6824608C0209756)
Complete name : D:\Pride.2014.Blu.Ray.720p.mkv
Format : Matroska
Format version : Version 4 / Version 2
File size : 4.75 GiB
Duration : 2h 1mn
Overall bit rate : 5 601 Kbps
Encoded date : UTC 2015-01-05 15:39:12
Writing application : mkvmerge v7.5.0 ('Glass Culture') 64bit built on Jan 4 2015 16:48:44
Writing library : libebml v1.3.1 + libmatroska v1.4.2
Video
ID : 1
Format : AVC
Format/Info : Advanced Video Codec
Format profile : [email protected]
Format settings, CABAC : Yes
Format settings, ReFrames : 5 frames
Codec ID : V_MPEG4/ISO/AVC
Duration : 2h 1mn
Bit rate : 4 551 Kbps
Width : 1 280 pixels
Height : 536 pixels
Display aspect ratio : 2.40:1
Frame rate mode : Constant
Frame rate : 23.976 fps
Color space : YUV
Chroma subsampling : 4:2:0
Bit depth : 8 bits
Scan type : Progressive
Bits/(Pixel*Frame) : 0.277
Stream size : 3.73 GiB (79%)
Writing library : x264 core 144 r2525 40bb568
Encoding settings : cabac=1 / ref=5 / deblock=1:0:0 / analyse=0x3:0x133 / me=umh / subme=7 / psy=1 / psy_rd=1.00:0.00 / mixed_ref=1 / me_range=16 / chroma_me=1 / trellis=1 / 8x8dct=1 / cqm=0 / deadzone=21,11 / fast_pskip=0 / chroma_qp_offset=-2 / threads=18 / lookahead_threads=3 / sliced_threads=0 / nr=0 / decimate=1 / interlaced=0 / bluray_compat=0 / constrained_intra=0 / bframes=3 / b_pyramid=2 / b_adapt=1 / b_bias=0 / direct=1 / weightb=1 / open_gop=0 / weightp=2 / keyint=240 / keyint_min=23 / scenecut=40 / intra_refresh=0 / rc_lookahead=40 / rc=2pass / mbtree=1 / bitrate=4551 / ratetol=1.0 / qcomp=0.60 / qpmin=10 / qpmax=51 / qpstep=4 / cplxblur=20.0 / qblur=0.5 / ip_ratio=1.40 / aq=1:1.00
Default : Yes
Forced : No
Audio #1
ID : 2
Format : AC-3
Format/Info : Audio Coding 3
Mode extension : CM (complete main)
Format settings, Endianness : Big
Codec ID : A_AC3
Duration : 2h 1mn
Bit rate mode : Constant
Bit rate : 448 Kbps
Channel(s) : 6 channels
Channel positions : Front: L C R, Side: L R, LFE
Sampling rate : 48.0 KHz
Bit depth : 16 bits
Compression mode : Lossy
Stream size : 389 MiB (8%)
Title : Павел Морозов
Language : Russian
Default : Yes
Forced : Yes
Audio #2
ID : 3
Format : AC-3
Format/Info : Audio Coding 3
Mode extension : CM (complete main)
Format settings, Endianness : Big
Codec ID : A_AC3
Duration : 2h 1mn
Bit rate mode : Constant
Bit rate : 640 Kbps
Channel(s) : 6 channels
Channel positions : Front: L C R, Side: L R, LFE
Sampling rate : 48.0 KHz
Bit depth : 16 bits
Compression mode : Lossy
Stream size : 556 MiB (11%)
Language : English
Default : No
Forced : No
Text #1
ID : 4
Format : UTF-8
Codec ID : S_TEXT/UTF8
Codec ID/Info : UTF-8 Plain Text
Language : Russian
Default : Yes
Forced : Yes
Text #2
ID : 5
Format : UTF-8
Codec ID : S_TEXT/UTF8
Codec ID/Info : UTF-8 Plain Text
Title : Сергей Гиллан
Language : Russian
Default : No
Forced : No
Text #3
ID : 6
Format : UTF-8
Codec ID : S_TEXT/UTF8
Codec ID/Info : UTF-8 Plain Text
Language : English
Default : No
Forced : No

Скриншоты

Яндекс.Метрика
Рейтинг@Mail.ru