Царь скорпионов 4: Утерянный трон / The Scorpion King: The Lost Throne (Майк Эллиот / Mike Elliott) [2015 г., боевик, BDRip, 1080p] MVO

 

Создавать темы 12-Янв-2015 05:57

-Царь скорпионов 4: Утерянный трон / The Scorpion King: The Lost Throne-- Производство: США
Год выпуска: 2015 г.
Жанр: боевик
Продолжительность: 01:44:51
Мировая премьера: 21 января 2015
Дата выхода DVD: 12 февраля 2015
Дата выхода Blu-Ray: 12 февраля 2015
Перевод: Профессиональный (многоголосый, закадровый) [BaiBaKo]
Режиссер: Майк Эллиот / Mike Elliott-В ролях: Ройс Грейси, Эсме Бьянко, Майкл Бин, Бэрри Боствик, Стивен Данливи, Грант Эллиотт, Лу Ферриньо, Ли Гилл, Роджер Халстон, Брэндон Хардести-Описание: В очередной киноленте про «Царя скорпионов» увидим мы как от своего трона отстранённый король-воин Матайюс решение принимает отправиться на страшное самое и ужасное задание жизни своей . Все это Матайюс сделать решает ради того, чтобы мир на земле его снова возродился. Все вроде бы своим шло чередом, но однажды от Матайюса его самый близкий отворачивается и лучший друг, такого никак он не мог предвидеть. Теперь самолично герой должен страшному противостоять злодею, который на все готов только бы убить его. Сможет ли Матайюс, все свои приложив силы, своему противнику противостоять ?! И добьётся ли герой наш того, ради чего отважился он на битву эту , наступит ли на его земле умиротворение ?-
Качество видео: BDRip 1080p
Контейнер: MKV
Видео кодек: H.264
Аудио кодек: AC3
Аудио кодек:DTS
Видео: AVC at 8933 Кбит/сек : 1920 x 1080 at 23.976 fps
Аудио: AC-3 at 384 Кбит/сек : 6 каналов, 48,0 КГц : ru
Аудио #2: DTS at 1509 Кбит/сек : 6 каналов, 48,0 КГц : en
Cубтитры: отсутствуют

Media Info

Общее
Уникальный идентификатор : 182682317319135770648591239720904165994 (0x896F55A354F94DA2AA27BB9656F80A6A)
Полное имя : D:\µTorrent\razda4a\Car.skorpionov.4.2015.P.BDRip.1080..mkv
Формат : Matroska
Версия формата : Version 4 / Version 2
Размер файла : 7,93 Гбайт
Продолжительность : 1 ч. 44 м.
Общий поток : 10,8 Мбит/сек
Дата кодирования : UTC 2015-01-10 04:14:20
Программа кодирования : mkvmerge v7.4.0 ('Circles') 64bit built on Dec 12 2014 12:19:56
Библиотека кодирования : libebml v1.3.0 + libmatroska v1.4.1
DURATION : 01:44:51.296000000
NUMBER_OF_FRAMES : 196603
NUMBER_OF_BYTES : 301982208
_STATISTICS_WRITING_APP : mkvmerge v7.4.0 ('Circles') 64bit built on Dec 12 2014 12:19:56
_STATISTICS_WRITING_DATE_UTC : 2015-01-10 04:14:20
_STATISTICS_TAGS : BPS DURATION NUMBER_OF_FRAMES NUMBER_OF_BYTES
Видео
Идентификатор : 1
Формат : AVC
Формат/Информация : Advanced Video Codec
Профиль формата : [email protected]
Параметр CABAC формата : Да
Параметр ReFrames формата : 4 кадра
Идентификатор кодека : V_MPEG4/ISO/AVC
Продолжительность : 1 ч. 44 м.
Битрейт : 8933 Кбит/сек
Ширина : 1920 пикселей
Высота : 1080 пикселей
Соотношение сторон : 16:9
Режим частоты кадров : Постоянный
Частота кадров : 23,976 кадра/сек
Цветовое пространство : YUV
Субдискретизация насыщенности : 4:2:0
Битовая глубина : 8 бит
Тип развёртки : Прогрессивная
Бит/(Пиксели*Кадры) : 0.180
Размер потока : 6,38 Гбайт (81%)
Библиотека кодирования : x264 core 142 r2479 dd79a61
Настройки программы : cabac=1 / ref=4 / deblock=1:0:0 / analyse=0x3:0x133 / me=umh / subme=7 / psy=1 / psy_rd=1.00:0.00 / mixed_ref=1 / me_range=16 / chroma_me=1 / trellis=1 / 8x8dct=1 / cqm=0 / deadzone=21,11 / fast_pskip=0 / chroma_qp_offset=-2 / threads=18 / lookahead_threads=3 / sliced_threads=0 / nr=0 / decimate=1 / interlaced=0 / bluray_compat=0 / constrained_intra=0 / bframes=3 / b_pyramid=2 / b_adapt=1 / b_bias=0 / direct=1 / weightb=1 / open_gop=0 / weightp=2 / keyint=250 / keyint_min=23 / scenecut=40 / intra_refresh=0 / rc_lookahead=40 / rc=2pass / mbtree=1 / bitrate=8933 / ratetol=1.0 / qcomp=0.60 / qpmin=0 / qpmax=69 / qpstep=4 / cplxblur=20.0 / qblur=0.5 / ip_ratio=1.40 / aq=1:1.00
Язык : English
Default : Да
Forced : Нет
DURATION : 01:44:51.254000000
NUMBER_OF_FRAMES : 150839
NUMBER_OF_BYTES : 7022624943
_STATISTICS_WRITING_APP : mkvmerge v7.4.0 ('Circles') 64bit built on Dec 12 2014 12:19:56
_STATISTICS_WRITING_DATE_UTC : 2015-01-10 04:14:20
_STATISTICS_TAGS : BPS DURATION NUMBER_OF_FRAMES NUMBER_OF_BYTES
Аудио #1
Идентификатор : 2
Формат : AC-3
Формат/Информация : Audio Coding 3
Расширение режима : CM (complete main)
Параметр Endianness формата : Big
Идентификатор кодека : A_AC3
Продолжительность : 1 ч. 44 м.
Вид битрейта : Постоянный
Битрейт : 384 Кбит/сек
Каналы : 6 каналов
Расположение каналов : Front: L C R, Side: L R, LFE
Частота : 48,0 КГц
Битовая глубина : 16 бит
Метод сжатия : С потерями
Размер потока : 288 Мбайт (4%)
Язык : Russian
Default : Да
Forced : Нет
Аудио #2
Идентификатор : 3
Формат : DTS
Формат/Информация : Digital Theater Systems
Режим : 16
Параметр Endianness формата : Big
Идентификатор кодека : A_DTS
Продолжительность : 1 ч. 44 м.
Вид битрейта : Постоянный
Битрейт : 1509 Кбит/сек
Каналы : 6 каналов
Расположение каналов : Front: L C R, Side: L R, LFE
Частота : 48,0 КГц
Битовая глубина : 24 бит
Метод сжатия : С потерями
Размер потока : 1,11 Гбайт (14%)
Язык : English
Default : Нет
Forced : Нет
Меню
00:00:00.000 : en:00:00:00.000
00:07:39.000 : en:00:07:39.000
00:10:13.154 : en:00:10:13.154
00:13:22.218 : en:00:13:22.218
00:21:03.888 : en:00:21:03.888
00:26:13.238 : en:00:26:13.238
00:29:55.585 : en:00:29:55.585
00:34:36.157 : en:00:34:36.157
00:40:55.244 : en:00:40:55.244
00:45:06.495 : en:00:45:06.495
00:52:01.994 : en:00:52:01.994
00:58:16.243 : en:00:58:16.243
01:05:12.992 : en:01:05:12.992
01:09:17.236 : en:01:09:17.236
01:14:57.535 : en:01:14:57.535
01:19:55.708 : en:01:19:55.708
01:25:27.289 : en:01:25:27.289
01:30:08.528 : en:01:30:08.528
01:35:47.575 : en:01:35:47.575
01:39:42.018 : en:01:39:42.018

Скриншоты

Яндекс.Метрика
Рейтинг@Mail.ru