Царь скорпионов 4: Утерянный трон / The Scorpion King: The Lost Throne (Майк Эллиот / Mike Elliott) [2015 г., боевик, BDRip] MVO (BaibaKo) + Original (Eng)

 

Создавать темы 12-Янв-2015 05:47

-Царь скорпионов 4: Утерянный трон
The Scorpion King: The Lost Throne
-- Страна: США
Год выпуска: 2015 г.
Жанр: боевик
Продолжительность: 01:44:51
Премьера (мир) 21 января 2015
Релиз на DVD 12 февраля 2015, «Двадцатый Век Фокс СНГ», ...
Релиз на Blu-Ray 12 февраля 2015, «Двадцатый Век Фокс СНГ», ...-Релиз:
Перевод: Многоголосый закадровый, профессиональный
Оригинальный аудиопоток: английский-Режиссер: Майк Эллиот / Mike Elliott
В ролях: Ройс Грейси, Эсме Бьянко, Майкл Бин, Бэрри Боствик, Стивен Данливи, Грант Эллиотт, Лу Ферриньо, Ли Гилл, Роджер Халстон, Брэндон Хардести-Описание:
В очередной киноленте про «Царя скорпионов» увидим мы как от своего трона отстранённый король-воин Матайюс решение принимает отправиться на самое страшное и ужасное задание своей жизни. Все это Матайюс сделать решает ради того, чтобы мир на земле его снова возродился. Все вроде бы шло своим чередом, но однажды от Матайюса отворачивается его самый близкий и лучший друг, такого никак он не мог предвидеть. Теперь самолично герой должен противостоять страшному злодею, который на все готов только бы убить его. Сможет ли Матайюс, все свои приложив силы, своему противнику противостоять ?! И добьётся ли герой наш того, ради чего отважился он на битву эту, наступит ли на его земле умиротворение ?-Качество видео: BDRip
Контейнер: AVI
Видео кодек: XviD
Аудио кодек: Mр3
Видео: MPEG-4 Visual at 1504 Кбит/сек: 720 x 400 (1.800) at 23.976 fps, 0.22 Бит/Пиксели
Аудио Rus: MPEG Audio at 192 Кбит/сек, 2 канала, 48,0 КГц |BaibaKo|
Аудио Eng: MPEG Audio at 192 Кбит/сек: 2 канала, 48,0 КГц |Original|
Cубтитры: отсутствуют

Media Info

Общее
Полное имя : E:\РАЗДАЧА\Films\Tsar.skorpionov.Uteryannyi.tron.2015.BDRip.1400MB.avi
Формат : AVI
Формат/Информация : Audio Video Interleave
Размер файла : 1,39 Гбайт
Продолжительность : 1 ч. 44 м.
Общий поток : 1902 Кбит/сек
Программа кодирования : VirtualDubMod 1.5.10.2 (build 2540/release)
Библиотека кодирования : VirtualDubMod build 2540/release
Видео
Идентификатор : 0
Формат : MPEG-4 Visual
Профиль формата : Advanced [email protected]
Параметр BVOP формата : 2
Параметр QPel формата : Нет
Параметр GMC формата : Без точки перехода
Параметр матрицы формата : Default (H.263)
Идентификатор кодека : XVID
Идентификатор кодека/Подсказка : XviD
Продолжительность : 1 ч. 44 м.
Битрейт : 1504 Кбит/сек
Ширина : 720 пикселей
Высота : 400 пикселей
Соотношение сторон : 16:9
Частота кадров : 23,976 кадра/сек
Цветовое пространство : YUV
Субдискретизация насыщенности : 4:2:0
Битовая глубина : 8 бит
Тип развёртки : Прогрессивная
Метод сжатия : С потерями
Бит/(Пиксели*Кадры) : 0.218
Размер потока : 1,10 Гбайт (79%)
Библиотека кодирования : XviD 1.2.1 (UTC 2008-12-04)
Аудио #1
Идентификатор : 1
Формат : MPEG Audio
Версия формата : Version 1
Профиль формата : Layer 3
Режим : Joint stereo
Идентификатор кодека : 55
Идентификатор кодека/Подсказка : MP3
Продолжительность : 1 ч. 44 м.
Вид битрейта : Постоянный
Битрейт : 192 Кбит/сек
Каналы : 2 канала
Частота : 48,0 КГц
Метод сжатия : С потерями
Размер потока : 144 Мбайт (10%)
Выравнивание : Соединение по промежуткам
Продолжительность промежутка : 42 мс. (1,00 видеокадр)
Время предзагрузки промежутка : 504 мс.
Аудио #2
Идентификатор : 2
Формат : MPEG Audio
Версия формата : Version 1
Профиль формата : Layer 3
Режим : Joint stereo
Идентификатор кодека : 55
Идентификатор кодека/Подсказка : MP3
Продолжительность : 1 ч. 44 м.
Вид битрейта : Постоянный
Битрейт : 192 Кбит/сек
Каналы : 2 канала
Частота : 48,0 КГц
Метод сжатия : С потерями
Размер потока : 144 Мбайт (10%)
Выравнивание : Соединение по промежуткам
Продолжительность промежутка : 42 мс. (1,00 видеокадр)
Время предзагрузки промежутка : 504 мс.
Библиотека кодирования : LAME3.98.4
-

Скриншот c названием фильма

-Скриншоты:
-- --
Яндекс.Метрика
Рейтинг@Mail.ru