Pirates / Hae-jeok: Ba-da-ro gan san-jeok (Сок Хун Ли / Seok-hoon Lee) [2014 г., история, комедия, приключения, HDRip] DVO (GREEN TEA)

 

Создавать темы 12-Янв-2015 05:47

-Pirates / Hae-jeok: Ba-da-ro gan san-jeok-- Производство: Южная Корея
Год выпуска: 2014 г.
Жанр: история, комедия, приключения
Продолжительность: 02:09:4
Мировая премьера: 6 августа 2014
Перевод: Любительский (двухголосый, закадровый) [GREEN TEA]
Перевод: Эльза Нордж
Озвучивание: Ольга Гринтиева и Константин Романов
Режиссер: Сок Хун Ли / Seok-hoon Lee-В ролях: Нам Гил Ким, Ё Чжин Сон, Хэ Чжин Ю, Кён Ён Ли, Тхэ У Ким, Чхоль Мин Пак, Вон Хэ Ким, Даль Хван Чо, Чжон Гын Син, Соль Ри Чхве, Даль Су О, И Кён Ли, Нэ Сан Ан, Хи Бон Чо, Сон Хва Чжон-Описание: Фильм рассказывает о эпохе Чосон. Банда пиратов под предводительством Сон Е Чжин соперничает с бандой горных разбойников, спустившихся на море в поисках фортуны, во главе с Ким Нам Гилем. Их ждет охота за призраком кита, проглотившем корабль с сокровищами, самым ценным из которых является «королевская печать» — подарок китайского императора корейскому.-
Качество видео: HDRip
Контейнер: AVI
Видео кодек: XviD
Аудио кодек: AC-3
Видео: MPEG-4 Visual at 1412 kb/s, 720x304 at 24 fps, 0.27 Бит/Пиксели
Аудио Rus: AC-3 at 192 Кбит/сек: 2 канала, 48,0 КГц [GREEN TEA]
Cубтитры: отсутствуют

MediaInfo

Полное имя                               : C:\Users\pc\Downloads\Pirates.2014.Green.Tea.HDRip.1.46GB[Pirat.ca].avi
Формат : AVI
Формат/Информация : Audio Video Interleave
Размер файла : 1,46 Гбайт
Продолжительность : 2 ч. 9 м.
Общий поток : 1614 Кбит/сек
Программа кодирования : VirtualDubMod 1.5.10.2 (build 2540/release)
Библиотека кодирования : VirtualDubMod build 2540/release
Видео
Идентификатор : 0
Формат : MPEG-4 Visual
Профиль формата : Advanced [email protected]
Параметр BVOP формата : 2
Параметр QPel формата : Нет
Параметр GMC формата : Без точки перехода
Параметр матрицы формата : Default (MPEG)
Идентификатор кодека : XVID
Идентификатор кодека/Подсказка : XviD
Продолжительность : 2 ч. 9 м.
Битрейт : 1412 Кбит/сек
Ширина : 720 пикселей
Высота : 304 пикселя
Соотношение сторон : 2,35:1
Частота кадров : 24,000 кадра/сек
Цветовое пространство : YUV
Субдискретизация насыщенности : 4:2:0
Битовая глубина : 8 бит
Тип развёртки : Прогрессивная
Метод сжатия : С потерями
Бит/(Пиксели*Кадры) : 0.269
Размер потока : 1,28 Гбайт (88%)
Библиотека кодирования : XviD 1.2.1 (UTC 2008-12-04)
Аудио
Идентификатор : 1
Формат : AC-3
Формат/Информация : Audio Coding 3
Расширение режима : CM (complete main)
Параметр Endianness формата : Big
Идентификатор кодека : 2000
Продолжительность : 2 ч. 9 м.
Вид битрейта : Постоянный
Битрейт : 192 Кбит/сек
Каналы : 2 канала
Расположение каналов : Front: L R
Частота : 48,0 КГц
Битовая глубина : 16 бит
Метод сжатия : С потерями
Размер потока : 178 Мбайт (12%)
Выравнивание : Разделение по промежуткам
Продолжительность промежутка : 42 мс. (1,00 видеокадр)
Время предзагрузки промежутка : 500 мс.

Скриншоты

Яндекс.Метрика
Рейтинг@Mail.ru