Белые ночи почтальона Алексея Тряпицына (Андрей Кончаловский) [2014 г., драма, HDTV, 1080i]

 

Создавать темы 12-Янв-2015 05:40

-Белые ночи почтальона Алексея Тряпицына-- Производство: Россия
премьера (мир):5 сентября 2014
Режиссер: Андрей Кончаловский
Жанр: драма
Год выпуска: 2014 г.
Продолжительность: 01:31:21
В ролях: Алексей Тряпицын, Ирина Ермолова, Тимур Бондаренко, Виктор Колобов, Виктор Березин, Татьяна Силич, Ирина Силич, Юрий Панфилов, Николай Капустин, Сергей Юрьев, Валентина Ананьина, Любовь Скорина
Режиссер: Андрей Кончаловский-Описание: Во многих деревнях России из-за их удаленности от городов и бездорожья люди живут как бы вне государства. В таких местах они практически предоставлены сами себе. Зачастую единственным представителем государства в подобных краях становится почтальон. Он – главное связующее звено между немногочисленными жителями заброшенных деревень и цивилизацией. Один из таких почтальонов станет главным героем картины.-Сэмпл КиноПоиск
Качество видео: HDTV1080i
Контейнер: AVC
Видео кодек:MPEG-TS AVC
Аудио кодек: AC3
Видео: AVC at 8756 Кбит/сек : 1920 x 1080 at 25.000 fps
Аудио: AC-3 at 384 Кбит/сек : 6 каналов, 48,0 КГц : ru
Cубтитры: отсутствуют

Media Info

Общее
Идентификатор : 1 (0x1)
Полное имя : D:\µTorrent\razda4a\Belye.nochi.pochtalona.Alekseya.Tryapitsyna.HDTV(1080i).MediaClub.ts
Формат : MPEG-TS
Размер файла : 6,14 Гбайт
Продолжительность : 1 ч. 31 м.
Режим общего битрейта : Переменный
Общий поток : 9619 Кбит/сек
Видео
Идентификатор : 4121 (0x1019)
Идентификатор меню : 1 (0x1)
Формат : AVC
Формат/Информация : Advanced Video Codec
Профиль формата : [email protected]
Параметр CABAC формата : Да
Параметр ReFrames формата : 3 кадра
Идентификатор кодека : 27
Продолжительность : 1 ч. 31 м.
Битрейт : 8756 Кбит/сек
Ширина : 1920 пикселей
Высота : 1080 пикселей
Соотношение сторон : 16:9
Частота кадров : 25,000 кадров/сек
Стандарт вещания : Component
Цветовое пространство : YUV
Субдискретизация насыщенности : 4:2:0
Битовая глубина : 8 бит
Тип развёртки : Чересстрочная
Порядок развёртки : Верхнее поле первое
Бит/(Пиксели*Кадры) : 0.169
Размер потока : 5,59 Гбайт (91%)
Основные цвета : BT.709
Характеристики трансфера : BT.709
Коэффициенты матрицы : BT.709
Аудио
Идентификатор : 4125 (0x101D)
Идентификатор меню : 1 (0x1)
Формат : AC-3
Формат/Информация : Audio Coding 3
Расширение режима : CM (complete main)
Параметр Endianness формата : Big
Идентификатор кодека : 6
Продолжительность : 1 ч. 31 м.
Вид битрейта : Постоянный
Битрейт : 384 Кбит/сек
Каналы : 6 каналов
Расположение каналов : Front: L C R, Side: L R, LFE
Частота : 48,0 КГц
Битовая глубина : 16 бит
Метод сжатия : С потерями
Размер потока : 251 Мбайт (4%)
Язык : Russian

Скриншоты

Яндекс.Метрика
Рейтинг@Mail.ru