[ Сегодня на трекере фрилич! Идет свободное скачивание без начисления Download ]

Андрей Левицкий, Алексей Бобл - Сборник книг из серии Технотьма, 8 томов. [2011-2013 г., Кирилл Радциг, Дмитрий Хазанович, Дамир Мударисов, Станислав Сытник, MP3, 87:45:18]

 

Создавать темы 12-Янв-2015 05:38

-Сборник книг из серии Технотьма, 8 томов.-- Год выпуска: 2011-2013 г.
Автор: Андрей Левицкий, Алексей Бобл
Исполнитель: Кирилл Радциг, Дмитрий Хазанович, Дамир Мударисов, Станислав Сытник
Жанр: фантастика
Издательство: Самиздат, Аудиокнига
Тип аудиокниги: аудиокнига
Цикл/Серия: Технотьма-Аудио кодек: MP3
Битрейт аудио: 32-44 kbps
Время звучания: 87:45:18-Описание:
Мир погряз во тьме. Общество забыло, что такое порядок и честь. Миром правят люди, захватившие власть над ресурсами, и диктуют свои правила... Наёмник-летчик Егор Разин бросает вызов сложившемуся положению вещей в надежде спаси свою жизнь. Ну знал ли он, насколько чудовищны могут оказаться открытия, к которым он придёт?-Список книг:

1. Пароль Вечность

Автор: Левицкий Андрей, Бобл Алексей
Год выпуска: 2012
Издательство: "Самиздат"
Исполнитель: Дмитрий Хазанович (Дим Димыч)
Продолжительность: 11:19:41-Описание:
Егор Разин — наёмный пилот. Попадает в плен к правительственной организации, и его должны казнить. Но ему дают выбор: умереть или участвовать в опаснейшем эксперименте. И вот во время эксперимента происходит сбой и его забрасывает в «параллельную реальность», как Егор думает по началу. Но чем больше времени он проводит там тем крепче убеждается, что этот новый мир опасный и неизведанный и есть его старый но много лет спустя...-

Media Info

Полное имя : D:\Torrent\book_audio\TexnoTma\1. Пароль Вечность\01.mp3
Формат : MPEG Audio
Размер файла : 10,0 Мбайт
Продолжительность : 31 м.
Режим общего битрейта : Переменный
Общий поток : 44,7 Кбит/сек
Трек : Parol vechnost
Исполнитель : Dim Dimych
Жанр : Other
Библиотека кодирования : LAME3.99r
Аудио
Формат : MPEG Audio
Версия формата : Version 1
Профиль формата : Layer 3
Продолжительность : 31 м.
Вид битрейта : Переменный
Битрейт : 44,7 Кбит/сек
Минимальный битрейт : 32,0 Кбит/сек
Каналы : 1 канал
Частота : 32,0 КГц
Метод сжатия : С потерями
Размер потока : 10,0 Мбайт (100%)
Библиотека кодирования : LAME3.99r
Настройки программы : -m m -V 8 -q 0 -lowpass 15.2 --vbr-new -b 32

2. Кланы пустоши

Автор: Левицкий Андрей , Бобл Алексей
Год выпуска: 2012
Издательство: творческая группа Самиздат
Исполнитель: Дмитрий Хазанович (Дим Димыч)
Продолжительность: 10:36:03-Описание:
Туран Джай — сын фермера с юга Пустоши, вступивший в схватку с бандитским кланом. Он попадает в рабство, бежит из страшной Донной пустыни и мстит убийцам своей семьи. Ему предстоит пройти через разрушенную Одессу, Харьков и Киев, вотчину Ордена Чистоты, добраться до Москвы, где хозяйничают могущественные кланы. Странствуя по просторам Пустоши, Туран пытается разгадать тайну небесных Платформ и ответить на главный вопрос: кто был причиной всемирной катастрофы, уничтожившей человеческую цивилизацию?-

Media Info

Общее
Полное имя : D:\Torrent\book_audio\TexnoTma\2. Кланы пустоши\001 Часть 1 Глава 1.mp3
Формат : MPEG Audio
Размер файла : 2,81 Мбайт
Продолжительность : 8 м. 58 с.
Режим общего битрейта : Переменный
Общий поток : 42,6 Кбит/сек
Трек : klany pustoshi
Трек/Положение : 0
Дата записи : 2012
Библиотека кодирования : LAME3.99r
Обложка : Yes
Тип обложки : Cover (front)
MIME-тип обложки : image/jpg
Аудио
Формат : MPEG Audio
Версия формата : Version 1
Профиль формата : Layer 3
Продолжительность : 8 м. 58 с.
Вид битрейта : Переменный
Битрейт : 42,6 Кбит/сек
Минимальный битрейт : 32,0 Кбит/сек
Каналы : 1 канал
Частота : 32,0 КГц
Метод сжатия : С потерями
Размер потока : 2,74 Мбайт (97%)
Библиотека кодирования : LAME3.99r
Настройки программы : -m m -V 8 -q 0 -lowpass 15.2 --vbr-new -b 32

3. Варвары Крыма

Автор: Андрей Левицкий, Алексей Бобл
Год выпуска: 2011
Издательство: Аудиокнига
Исполнитель: Кирилл Радциг
Продолжительность: 09:53:35-Описание:
Великие города погибшей цивилизации стали пеплом, который ветер несет через пустоши мрачного будущего. От Херсона до Севастополя дикие земли населены мутантами, бандитами и бродягами. Посреди горы Крым началась война кланов. Главный герой этой книги становится объектом смертельной охоты: враждующие силы хотят захватить его, чтобы вырвать сведения, с помощью которых можно уничтожить весь Крым...-

Media Info

Общее
Полное имя : D:\Torrent\book_audio\TexnoTma\3. Варвары Крыма\000 - Part01 - Chapter01 - 00.mp3
Формат : MPEG Audio
Размер файла : 4,40 Мбайт
Продолжительность : 14 м.
Режим общего битрейта : Переменный
Общий поток : 43,3 Кбит/сек
Альбом : Варвары Крыма
Трек : Часть 1. Инкерман. Глава 1
Трек/Положение : 1
Трек/Всего : 61
Исполнитель : Андрей Левицкий, Алексей Бобл
Жанр : AudioBook
Дата записи : 2011
Библиотека кодирования : LAME3.99r
Обложка : Yes
Тип обложки : Cover (front)
MIME-тип обложки : image/jpeg
Примечание : Исполнитель: Кирилл Радциг
Аудио
Формат : MPEG Audio
Версия формата : Version 1
Профиль формата : Layer 3
Продолжительность : 14 м.
Вид битрейта : Переменный
Битрейт : 43,3 Кбит/сек
Минимальный битрейт : 32,0 Кбит/сек
Каналы : 1 канал
Частота : 32,0 КГц
Метод сжатия : С потерями
Размер потока : 4,39 Мбайт (100%)
Библиотека кодирования : LAME3.99r
Настройки программы : -m m -V 8 -q 0 -lowpass 15.2 --vbr-new -b 32

4. Джагер

Автор: Андрей Левицкий, Алексей Бобл
Исполнитель: Станислав Сытник
Издательство: Аудиокнига
Год выпуска: 2011
Продолжительность: 14:50:00-Описание:
Вик Каспер, сын великого джагера, унаследовал дар своего отца. Кто бы мог подумать, что в один прекрасный день он будет одним из главных участников похода, от которого будет зависеть судьба всей пустоши. К таинственному месту недалеко от Минска стягиваются различные силы пустоши. К ТРОНУ — таинственному устройству, имеющему огромную мощь, отправляются с одной стороны Баграт — глава киевского храма, с другой главарь одной из самой мощной банды Москвы — Ильмар Крест. Также, в эту игру решил ввязаться ещё и Гест — глава московского клана ордена чистоты. На его стороне никто иной, как человек, способный проходить через некроз. Кровавая, беспощадная игра за могущество началась, кости брошены.-

Media Info

Общее
Полное имя : D:\Torrent\book_audio\TexnoTma\4. Джагер\01_00_01.mp3
Формат : MPEG Audio
Размер файла : 3,77 Мбайт
Продолжительность : 11 м.
Режим общего битрейта : Переменный
Общий поток : 44,2 Кбит/сек
Альбом : Джагер
Трек : Пролог
Трек/Положение : 1
Трек/Всего : 81
Исполнитель : Андрей Левицкий, Алексей Бобл
Жанр : AudioBook
Дата записи : 2011
Библиотека кодирования : LAME3.99r
Обложка : Yes
Тип обложки : Cover (front)
MIME-тип обложки : image/jpeg
Примечание : Исполнитель: Станислав Сытник
Аудио
Формат : MPEG Audio
Версия формата : Version 1
Профиль формата : Layer 3
Продолжительность : 11 м.
Вид битрейта : Переменный
Битрейт : 44,2 Кбит/сек
Минимальный битрейт : 32,0 Кбит/сек
Каналы : 1 канал
Частота : 32,0 КГц
Метод сжатия : С потерями
Размер потока : 3,69 Мбайт (98%)
Библиотека кодирования : LAME3.99r
Настройки программы : -m m -V 8 -q 0 -lowpass 15.2 --vbr-new -b 32

5. Песчаный блюз

Автор: Андрей Левицкий, Алексей Бобл
Год выпуска: 2011
Издательство: Аудиокнига
Исполнитель: Кирилл Радциг
Продолжительность: 09:07:09-Описание:
После ярких приключений в Крыму Альб решает полностью завязать с прошлым. Теперь он простой доставщик, на досуге занимающийся музыкальным творчеством. Однако в один прекрасный момент главный герой получает непростой заказ. Эта доставка изменит скучную жизнь Музыканта, породит большую войну в Пустоши, откроет тайны доминантов, а также подарит белокурому сочинителю песен новые знакомства и множество приключений. Что же было в этой посылке ?-

Media Info

Общее
Полное имя : D:\Torrent\book_audio\TexnoTma\5. Песчаный блюз\000 - Part01 - Chapter01 - 00.mp3
Формат : MPEG Audio
Размер файла : 2,60 Мбайт
Продолжительность : 8 м. 24 с.
Режим общего битрейта : Переменный
Общий поток : 43,1 Кбит/сек
Альбом : Песчаный блюз
Трек : Часть 1. Этот жестокий мир. Глава 1. Попытка грабежа средь бела дня
Трек/Положение : 1
Трек/Всего : 58
Исполнитель : Андрей Левицкий, Алексей Бобл
Жанр : AudioBook
Дата записи : 2011
Библиотека кодирования : LAME3.99r
Обложка : Yes
Тип обложки : Cover (front)
MIME-тип обложки : image/jpeg
Примечание : Исполнитель: Кирилл Радциг
Аудио
Формат : MPEG Audio
Версия формата : Version 1
Профиль формата : Layer 3
Продолжительность : 8 м. 24 с.
Вид битрейта : Переменный
Битрейт : 43,1 Кбит/сек
Минимальный битрейт : 32,0 Кбит/сек
Каналы : 1 канал
Частота : 32,0 КГц
Метод сжатия : С потерями
Размер потока : 2,59 Мбайт (100%)
Библиотека кодирования : LAME3.99r
Настройки программы : -m m -V 8 -q 0 -lowpass 15.2 --vbr-new -b 32

6. Воин пустоши

Автор: Андрей Левицкий, Алексей Бобл
Год выпуска: 2012
Издательство: Творческая группа "САМИЗДАТ"
Исполнитель: Дмитрий Хазанович (Дим Димыч)
Продолжительность: 11:03:18-Описание:
Продолжение романа «Кланы Пустоши» о приключениях Турана Джая в мире, пережившем Погибель. Туран -- сын фермера, чью семью уничтожила банда атамана Макоты. Его самого пленили и продали в рабство, но он бежал и посреди смертельно опасной Донной пустыни повстречался со Ставридесом, хозяином удивительного летающего термоплана. Ставро, Туран, бродяга по имени Тим Белорус и женщина, которую все называют Макс Знаток, отправляются в глубь Донной пустыни, где, по слухам, находится нечто невероятное -- машина из иного времени и пространства под названием энергион. Но атаман Макота со своими приспешниками тайно преследует их -- и достигает энергиона одновременно с героями. Теперь ничто не может помешать смертельной схватке между ними.-

Media Info

Общее
Полное имя : D:\Torrent\book_audio\TexnoTma\6. Воин пустоши\001 Часть 1 Глава 1.mp3
Формат : MPEG Audio
Размер файла : 2,56 Мбайт
Продолжительность : 8 м. 11 с.
Режим общего битрейта : Переменный
Общий поток : 42,6 Кбит/сек
Дата записи : 2012
Библиотека кодирования : LAME3.99r
Обложка : Yes
Тип обложки : Cover (front)
MIME-тип обложки : image/jpg
Engineer : ф a
Аудио
Формат : MPEG Audio
Версия формата : Version 1
Профиль формата : Layer 3
Продолжительность : 8 м. 11 с.
Вид битрейта : Переменный
Битрейт : 42,6 Кбит/сек
Минимальный битрейт : 32,0 Кбит/сек
Каналы : 1 канал
Частота : 32,0 КГц
Метод сжатия : С потерями
Размер потока : 2,50 Мбайт (97%)
Библиотека кодирования : LAME3.99r
Настройки программы : -m m -V 8 -q 0 -lowpass 15.2 --vbr-new -b 32

7. Падение небес

Автор: Алексей Бобл
Год выпуска: 2012
Издательство: Творческая группа "Самиздат"
Исполнитель: Дмитрий Хазанович (Дим Димыч)
Продолжительность: 09:58:26-Описание:
Четыре героя книг из цикла «Технотьма» скоро сойдутся вместе! С разных сторон все они направляются в Киев. Там в главном храме Ордена Чистоты крепнет заговор. Там появляются новые пятна некроза, и никто пока не может понять, какая таинственная сила создает их. Там посреди туманных болот, раскинувшихся вокруг городских развалин, прячется главный враг — доктор Губерт, пришелец из другого времени...-

Media Info

Общее
Полное имя : D:\Torrent\book_audio\TexnoTma\7. Падение небес\001.mp3
Формат : MPEG Audio
Размер файла : 5,18 Мбайт
Продолжительность : 16 м.
Режим общего битрейта : Переменный
Общий поток : 42,3 Кбит/сек
Альбом : Алексей Бобл "Падение небес"
Альбом/Исполнитель : Дмитрий Хазанович (Дим Димыч)
Трек : Падение небес (серия Технотьма)
Исполнитель : Дмитрий Хазанович (Дим Димыч)
Композитор : Михаил Аввакумов
Жанр : Speech
Дата записи : 2012-10-12
Библиотека кодирования : LAME3.99r
Обложка : Yes
Тип обложки : Cover (front)
MIME-тип обложки : image/jpg
Engineer : Microsoft Dima
Аудио
Формат : MPEG Audio
Версия формата : Version 1
Профиль формата : Layer 3
Продолжительность : 16 м.
Вид битрейта : Переменный
Битрейт : 42,3 Кбит/сек
Минимальный битрейт : 32,0 Кбит/сек
Каналы : 1 канал
Частота : 32,0 КГц
Метод сжатия : С потерями
Размер потока : 4,97 Мбайт (96%)
Библиотека кодирования : LAME3.99r
Настройки программы : -m m -V 8 -q 0 -lowpass 15.2 --vbr-new -b 32

8. Последняя битва

Автор: Алексей Бобл
Год выпуска: 2013
Издательство: Творческая группа "СамИздат"
Исполнитель: Дамир Мударисов (saturn78)
Продолжительность: 11:23:17-Описание:
Армия мутантов на подступах к Москве. Город отрезан от Пустоши, голод близок. Московские кланы вынуждены сплотиться для решающей битвы с врагом. Ильмар Крест, новый глава Ордена Чистоты, собирается повести их на войну с врагом. Но захватчиками командует Баграт, владыка киевского Храма. Вступив в союз с кочевыми мутантами, он тайно руководит их действиями, планируя атаку на город. Между двух сближающихся армий оказывается Вик Каспер, джагер, способный ходить через смертельный некроз. Кому, как не ему, сыграть решающую роль в предстоящей последней битве?-

Media Info

Общее
Полное имя : D:\Torrent\book_audio\TexnoTma\8. Последняя битва\000 Последняя битва.mp3
Формат : MPEG Audio
Размер файла : 634 Кбайт
Продолжительность : 1 м. 17 с.
Режим общего битрейта : Переменный
Общий поток : 40,7 Кбит/сек
Дата записи : 2013
Библиотека кодирования : LAME3.99r
Обложка : Yes
Тип обложки : Cover (front)
MIME-тип обложки : image/jpg
Примечание : sam-izdat.org
Аудио
Формат : MPEG Audio
Версия формата : Version 1
Профиль формата : Layer 3
Продолжительность : 1 м. 17 с.
Вид битрейта : Переменный
Битрейт : 40,7 Кбит/сек
Минимальный битрейт : 32,0 Кбит/сек
Каналы : 1 канал
Частота : 32,0 КГц
Метод сжатия : С потерями
Размер потока : 388 Кбайт (61%)
Библиотека кодирования : LAME3.99r
Настройки программы : -m m -V 8 -q 0 -lowpass 15.2 --vbr-new -b 32
Яндекс.Метрика
Рейтинг@Mail.ru