[ Сегодня на трекере фрилич! Идет свободное скачивание без начисления Download ]

Кодекс силы / Hardball (Джордж Эршбэймер / George Erschbamer) [1997 г., Боевик, драма, HDRip-AVC] AVO (Сергей Кузнецов) + original (Eng)

 

Создавать темы 12-Янв-2015 05:29

Кодекс силы / Hardball
Год выпуска: 1997
Производство: Канада, США
Жанр: Боевик, драма
Продолжительность: 01:36:51
Перевод: Авторский (одноголосый, закадровый) Сергей Кузнецов
Оригинальный аудиопоток: английский
Субтитры: отсутствуют
Режиссер: Джордж Эршбэймер / George Erschbamer
В ролях: Майкл Дудикофф, Лиза Ховард, Тони Кёртис, Стив Бачич, Л. Харви Голд, Пабло Коффи, Риз МакБет, Эйприл Телек, Клер Райли, Гари Чок
Описание: Спецагент по поимке беглецов перешел дорогу боссам местной мафии, и они заказали его убийство. Опаснейшие столкновения, преследования, захват заложников, множество взрывов, и в финале этой кровавой битвы только один останется в живых.
, КиноПоиск
Качество видео: HDRip-AVC
Контейнер: MKV
Видео кодек: H.264
Аудио кодек: AC3
Видео: 720x400, 23.976fps, 2210Kbps, 0.320 bt/px
Аудио : AC-3, 192 Kbps, 2 ch, 48.0 KHz Rus Кузнецов
Аудио : AC-3, 192 Kbps, 2 ch, 48.0 KHz Eng Original

Доп. информация

HDRip сделан из BDRip 1080P найденный в сети, русская дорога с DVD из коллекции!

Media Info

G:\загрузки\Hardball_[Pirat.ca].torrent.mkv
General
Unique ID : 181696287327778010680199157079678240276 (0x88B16E9B25A255B4AE95EE53C299C614)
Complete name : G:\загрузки\Hardball_[Pirat.ca].torrent.mkv
Format : Matroska
Format version : Version 1
File size : 1.75 GiB
Duration : 1h 36mn
Overall bit rate : 2 585 Kbps
Encoded date : UTC 2015-01-11 07:31:00
Writing application : mkvmerge v2.5.3 ('Boogie') built on Mar 7 2009 15:00:41
Writing library : libebml v0.7.7 + libmatroska v0.8.1
Video #1
ID : 1
Format : AVC
Format/Info : Advanced Video Codec
Format profile : [email protected]
Format settings, CABAC : Yes
Format settings, ReFrames : 9 frames
Codec ID : V_MPEG4/ISO/AVC
Duration : 1h 36mn
Bit rate : 2 210 Kbps
Width : 720 pixels
Height : 400 pixels
Display aspect ratio : 16:9
Frame rate mode : Constant
Frame rate : 23.976 fps
Color space : YUV
Chroma subsampling : 4:2:0
Bit depth : 8 bits
Scan type : Progressive
Bits/(Pixel*Frame) : 0.320
Stream size : 1.45 GiB (83%)
Writing library : x264 core 130 r2273 b3065e6
Encoding settings : cabac=1 / ref=9 / deblock=1:-1:-1 / analyse=0x3:0x133 / me=umh / subme=11 / psy=1 / psy_rd=1.00:0.10 / mixed_ref=1 / me_range=24 / chroma_me=1 / trellis=2 / 8x8dct=1 / cqm=0 / deadzone=21,11 / fast_pskip=0 / chroma_qp_offset=-3 / threads=6 / lookahead_threads=1 / sliced_threads=0 / nr=0 / decimate=0 / interlaced=0 / bluray_compat=0 / constrained_intra=0 / bframes=8 / b_pyramid=2 / b_adapt=2 / b_bias=0 / direct=3 / weightb=1 / open_gop=0 / weightp=2 / keyint=250 / keyint_min=23 / scenecut=40 / intra_refresh=0 / rc_lookahead=50 / rc=abr / mbtree=1 / bitrate=2210 / ratetol=1.0 / qcomp=0.60 / qpmin=0 / qpmax=51 / qpstep=4 / ip_ratio=1.40 / aq=1:1.00
Language : English
Default : Yes
Forced : No
Audio #2
ID : 2
Format : AC-3
Format/Info : Audio Coding 3
Mode extension : CM (complete main)
Format settings, Endianness : Big
Codec ID : A_AC3
Duration : 1h 36mn
Bit rate mode : Constant
Bit rate : 192 Kbps
Channel(s) : 2 channels
Channel positions : Front: L R
Sampling rate : 48.0 KHz
Bit depth : 16 bits
Compression mode : Lossy
Stream size : 133 MiB (7%)
Title : AVO Кузнецов
Language : Russian
Default : Yes
Forced : No
Audio #3
ID : 3
Format : AC-3
Format/Info : Audio Coding 3
Mode extension : CM (complete main)
Format settings, Endianness : Big
Codec ID : A_AC3
Duration : 1h 36mn
Bit rate mode : Constant
Bit rate : 192 Kbps
Channel(s) : 2 channels
Channel positions : Front: L R
Sampling rate : 48.0 KHz
Bit depth : 16 bits
Compression mode : Lossy
Stream size : 133 MiB (7%)
Language : English
Default : No
Forced : No

log x.264

x264 [info]: frame I:1067  Avg QP:13.45  size: 60592
x264 [info]: frame P:30193 Avg QP:17.18 size: 23263
x264 [info]: frame B:108083 Avg QP:19.42 size: 7696
x264 [info]: consecutive B-frames: 1.5% 1.7% 6.9% 28.7% 21.0% 32.0% 4.7% 2.2% 1.3%
x264 [info]: mb I I16..4: 10.0% 55.5% 34.6%
x264 [info]: mb P I16..4: 0.8% 19.2% 3.3% P16..4: 23.3% 31.4% 15.8% 4.8% 0.8% skip: 0.5%
x264 [info]: mb B I16..4: 0.1% 3.2% 0.4% B16..8: 33.9% 27.8% 6.0% direct: 8.8% skip:19.9% L0:41.6% L1:40.1% BI:18.3%
x264 [info]: final ratefactor: 15.77
x264 [info]: 8x8 transform intra:81.7% inter:49.4%
x264 [info]: direct mvs spatial:100.0% temporal:0.0%
x264 [info]: coded y,uvDC,uvAC intra: 95.7% 86.2% 62.3% inter: 41.6% 30.1% 12.6%
x264 [info]: i16 v,h,dc,p: 19% 10% 21% 50%
x264 [info]: i8 v,h,dc,ddl,ddr,vr,hd,vl,hu: 9% 8% 9% 9% 13% 13% 12% 12% 14%
x264 [info]: i4 v,h,dc,ddl,ddr,vr,hd,vl,hu: 11% 9% 5% 8% 15% 14% 13% 12% 13%
x264 [info]: i8c dc,h,v,p: 43% 23% 19% 15%
x264 [info]: Weighted P-Frames: Y:5.2% UV:2.3%
x264 [info]: ref P L0: 41.7% 12.5% 19.2% 6.8% 6.4% 4.0% 4.1% 2.3% 2.7% 0.3% 0.0%
x264 [info]: ref B L0: 75.8% 11.2% 5.0% 3.0% 2.0% 1.7% 0.9% 0.4%
x264 [info]: ref B L1: 93.6% 6.4%
x264 [info]: kb/s:2200.81
x264 [total]: encoded 139343 frames, 6.76 fps, 2200.82 kb/s

Скриншоты

Яндекс.Метрика
Рейтинг@Mail.ru