[ Сегодня на трекере фрилич! Идет свободное скачивание без начисления Download ]

Близнецы / The Skeleton Twins (Крэйг Джонсон / Craig Johnson) [2014 г., драма, BDRip, 720p] VO (Lord32x) + Sub (Rus, Eng) + Original (Eng)

 

Создавать темы 12-Янв-2015 04:53

-Близнецы / The Skeleton Twins- Производство: США
Год выпуска: 2014 г.
Жанр: драма
Продолжительность: 01:33:05
Мировая премьера: 18 января 2014
Перевод: Любительский (одноголосый, закадровый) [Lord32x]
Оригинальный аудиопоток: английский-Режиссер: Крэйг Джонсон / Craig Johnson
В ролях: Кристен Уиг, Билл Хейдер, Люк Уилсон, Тай Буррелл, Бойд Холбрук, Кэтлин Роуз Перкинс, Джоанна Глисон, Йен Хайланд, Дженнифер ЛаФлер, Женевьева Адамс-Описание: Близнецы Мэгги и Майло не общались друг с другом сто лет, но, так уж случилось, что в один и тот же день и час они ухитрились чудом избежать смерти. Именно в минуту опасности оба пообещали изменить в жизни всё, что пошло не так, как им хотелось. Для Мэгги это пересмотр собственного брака с Лэнсом, а для гея Майло — попытка восстановить отношения со своим бывшим учителем Ричем, о чем они оба, в общем-то, стараются помалкивать. А потом брат и сестра осознают, что ключ к нормальной жизни для них — это еще и восстановление отношений друг с другом.- -Качество видео: BDRip
Контейнер: MKV
Стандарт разрешения: 720p
Видео кодек: H.264
Аудио кодек: AC3
Видео: 1280x534, 6 902 Kbps, 23.976 fps, 0.421 bit/pix
Аудио: 448 Kbps, 6 ch, 48.0 KHz - Rus
Аудио #2: 640 Kbps, 6 ch, 48.0 KHz - Eng
Cубтитры: Русские, английские
Формат субтитров: softsub (SRT)
Дополнительно: Сохранены оригинальные чаптеры как на Blu-Ray

Media Info

General
Unique ID : 179474834132497583420509354205282358125 (0x87059881E3F463EEAAD7E9E5C624D36D)
Complete name : D:\The.Skeleton.Twins.2014.Blu.Ray.720p.mkv
Format : Matroska
Format version : Version 4 / Version 2
File size : 5.30 GiB
Duration : 1h 33mn
Overall bit rate : 8 152 Kbps
Encoded date : UTC 2015-01-10 19:31:33
Writing application : mkvmerge v7.5.0 ('Glass Culture') 64bit built on Jan 4 2015 16:48:44
Writing library : libebml v1.3.1 + libmatroska v1.4.2
Video
ID : 1
Format : AVC
Format/Info : Advanced Video Codec
Format profile : [email protected]
Format settings, CABAC : Yes
Format settings, ReFrames : 12 frames
Codec ID : V_MPEG4/ISO/AVC
Duration : 1h 33mn
Bit rate : 6 902 Kbps
Width : 1 280 pixels
Height : 534 pixels
Display aspect ratio : 2.40:1
Frame rate mode : Constant
Frame rate : 23.976 fps
Color space : YUV
Chroma subsampling : 4:2:0
Bit depth : 8 bits
Scan type : Progressive
Bits/(Pixel*Frame) : 0.421
Stream size : 4.49 GiB (85%)
Writing library : x264 core 142 r2431+42 c69a006 tMod [[email protected] X86_64]
Encoding settings : cabac=1 / ref=12 / deblock=1:-3:-3 / analyse=0x3:0x133 / me=tesa / subme=10 / psy=1 / fade_compensate=0.00 / psy_rd=1.05:0.00 / mixed_ref=1 / me_range=32 / chroma_me=1 / trellis=2 / 8x8dct=1 / cqm=0 / deadzone=21,11 / fast_pskip=0 / chroma_qp_offset=-2 / threads=12 / lookahead_threads=3 / sliced_threads=0 / nr=0 / decimate=1 / interlaced=0 / bluray_compat=0 / constrained_intra=0 / fgo=0 / bframes=12 / b_pyramid=2 / b_adapt=2 / b_bias=0 / direct=3 / weightb=1 / open_gop=0 / weightp=2 / keyint=241 / keyint_min=23 / scenecut=40 / intra_refresh=0 / rc_lookahead=60 / rc=crf / mbtree=0 / crf=16.9000 / qcomp=0.70 / qpmin=0:0:0 / qpmax=69:69:69 / qpstep=4 / vbv_maxrate=50000 / vbv_bufsize=62500 / crf_max=0.0 / nal_hrd=none / filler=0 / ip_ratio=1.40 / pb_ratio=1.30 / aq=4:0.80 / aq-sensitivity=10.00 / aq-factor=1.00:1.00:1.00 / aq2=0 / aq3=0 / zones=126260,133920,q=26
Language : English
Default : Yes
Forced : No
Audio #1
ID : 2
Format : AC-3
Format/Info : Audio Coding 3
Mode extension : CM (complete main)
Format settings, Endianness : Big
Codec ID : A_AC3
Duration : 1h 33mn
Bit rate mode : Constant
Bit rate : 448 Kbps
Channel(s) : 6 channels
Channel positions : Front: L C R, Side: L R, LFE
Sampling rate : 48.0 KHz
Bit depth : 16 bits
Compression mode : Lossy
Stream size : 298 MiB (5%)
Title : Lord32x
Language : Russian
Default : Yes
Forced : Yes
Audio #2
ID : 3
Format : AC-3
Format/Info : Audio Coding 3
Mode extension : CM (complete main)
Format settings, Endianness : Big
Codec ID : A_AC3
Duration : 1h 33mn
Bit rate mode : Constant
Bit rate : 640 Kbps
Channel(s) : 6 channels
Channel positions : Front: L C R, Side: L R, LFE
Sampling rate : 48.0 KHz
Bit depth : 16 bits
Compression mode : Lossy
Stream size : 426 MiB (8%)
Language : English
Default : No
Forced : No
Text #1
ID : 4
Format : UTF-8
Codec ID : S_TEXT/UTF8
Codec ID/Info : UTF-8 Plain Text
Language : Russian
Default : Yes
Forced : Yes
Text #2
ID : 5
Format : UTF-8
Codec ID : S_TEXT/UTF8
Codec ID/Info : UTF-8 Plain Text
Title : Абасов Али
Language : Russian
Default : No
Forced : No
Text #3
ID : 6
Format : UTF-8
Codec ID : S_TEXT/UTF8
Codec ID/Info : UTF-8 Plain Text
Language : English
Default : No
Forced : No
Text #4
ID : 7
Format : UTF-8
Codec ID : S_TEXT/UTF8
Codec ID/Info : UTF-8 Plain Text
Title : SDH
Language : English
Default : No
Forced : No
Menu
00:00:00.000 : :00:00:00.000
00:06:07.367 : :00:06:07.367
00:12:38.466 : :00:12:38.466
00:16:30.990 : :00:16:30.990
00:21:49.850 : :00:21:49.850
00:27:03.121 : :00:27:03.121
00:33:06.193 : :00:33:06.193
00:38:44.572 : :00:38:44.572
00:44:36.424 : :00:44:36.424
00:49:29.592 : :00:49:29.592
00:54:22.134 : :00:54:22.134
00:59:23.101 : :00:59:23.101
01:05:16.204 : :01:05:16.204
01:11:33.998 : :01:11:33.998
01:18:05.848 : :01:18:05.848
01:27:46.094 : :01:27:46.094

Скриншоты

Яндекс.Метрика
Рейтинг@Mail.ru