Менталист / The Mentalist / Сезон 6 / Полный / Серии 01-22 из 22) (Крис Лонг / Chris Long ...) [2013-2014, триллер, драма, криминал, детектив, WEB-DLRip] MVO (BaibaKo) + Original (Eng)

 

Создавать темы 12-Янв-2015 04:47

Менталист / The Mentalist
«He reads between the lies»
- Русское название: Менталист
Оригинальное название: The Mentalist
Страна: США
Год выпуска: 2013-2014
Жанр: триллер, драма, криминал, детектив, ...-Релиз:
Перевод: Многоголосый закадровый, профессиональный
Оригинальный аудиопоток: английский-Автор перевода: Татьяна Ланцетова
Озвучка: Елена Григорьева, Татьяна Оболевич, Алексей Кузнецов, Виталий Ткаченко и Александр Фурман
Сведение: Виталий Ткаченко
Обложка: Антон Максимов-Режиссер: Крис Лонг / Chris Long, Эрик Ланёвилль / Eric Laneuville, Джон Шоуолтер / John Showalter, ...
В главных ролях: Саймон Бейкер, Робин Танни, Тим Кенг, Овайн Йомэн, Аманда Ригетти, Рокмонд Данбар, Онжаню Эллис, Майкл Гэстон, Грегори Итцин, Джон Трой Донован, ...
Роли дублировали: Сергей Набиев, Вероника Саркисова, Евгений Вальц, Никита Прозоровский, Ольга Зверева-Описание фильма:
Патрик Джейн — детектив и независимый консультант из Калифорнийского Бюро Расследований (CBI), он использует свои отточенные, как лезвие, навыки наблюдения для раскрытия тяжких преступлений. В самом Бюро Джейн известен за частые нарушения протокола, а также за его звездное прошлое: он работал медиумом, однако теперь сам признает, что симулировал паранормальные способности. Роль Джейна в раскрытии целой серии загадочных преступлений высоко ценится коллегами. Но суровая старший агент Тереза Лисбон против того, чтоб Джейн работал с ее отрядом, и то вынужденно признает его успехи, то критикует его за театральность, нарциссизм и отсутствие границ.-Премьера (мир): 23 сентября 2008, ...
Премьера (РФ): 12 апреля 2010
Релиз на DVD: 30 января 2014, «CP Дистрибуция», ...-Сезон: 6
Серии: 22 из 22 серий
Продолжительность: ~ 00:42:00 серия-Качество видео: WEB-DLRip
Контейнер: AVI
Видео кодек: XviD
Аудио кодек: Mр3
Видео: MPEG-4 Visual at 1553 Кбит/сек: 720 x 400 (1.800) at 23.976 fps, 0.22 Бит/Пиксели
Аудио Rus: MPEG Audio at 192 Кбит/сек, 2 канала, 48,0 КГц |BaibaKo|
Аудио Eng: MPEG Audio at 192 Кбит/сек: 2 канала, 48,0 КГц |Original|
Cубтитры: отсутствуют
- -

Список серий:

  • The Desert Rose / Роза пустыни
  • Black-Winged Redbird / Чёрнокрылая красная птица
  • Wedding in Red / Свадьба в красном
  • Red-Listed / Кровавый список
  • The Red Tattoo / Красная татуировка
  • Fire and Brimstone / Огонь и сера
  • The Great Red Dragon / Великий красный дракон
  • Red John / Красный Джон
  • My Blue Heaven / Под голубыми небесами
  • Green Thumb / Зелёный палец
  • White Lines / Белые линии
  • The Golden Hammer / Золотой молоток
  • Black Helicopters / Чёрные вертолеты
  • Grey Water / Сточные воды
  • White as the Driven Snow / Белый, как первый снег
  • Violets / Фиалки
  • Silver Wings of Time / Серебряные крылья времени
  • Forest Green / Зелёный лес
  • Brown Eyed Girls / Кареглазые девушки
  • Il Tavolo Bianco / Белый стол (Таволо Бьянко)
  • Black Hearts / Чёрные сердца
  • Blue Bird / Синяя птица
-

MediaInfo:

Общее
Полное имя : E:\_Сериалы\Mentalist.s06\Mentalist.s06e01.WEB-DLRip.XviD.Rus.Eng.BaibaKo.tv.avi
Формат : AVI
Формат/Информация : Audio Video Interleave
Размер файла : 583 Мбайт
Продолжительность : 41 м.
Общий поток : 1951 Кбит/сек
Программа кодирования : VirtualDubMod 1.5.10.2 (build 2542/release)
Библиотека кодирования : VirtualDubMod build 2542/release
Видео
Идентификатор : 0
Формат : MPEG-4 Visual
Профиль формата : Advanced [email protected]
Параметр BVOP формата : 2
Параметр QPel формата : Нет
Параметр GMC формата : Без точки перехода
Параметр матрицы формата : Default (H.263)
Идентификатор кодека : XVID
Идентификатор кодека/Подсказка : XviD
Продолжительность : 41 м.
Битрейт : 1553 Кбит/сек
Ширина : 720 пикселей
Высота : 400 пикселей
Соотношение сторон : 16:9
Частота кадров : 23,976 кадра/сек
Цветовое пространство : YUV
Субдискретизация насыщенности : 4:2:0
Битовая глубина : 8 бит
Тип развёртки : Прогрессивная
Метод сжатия : С потерями
Бит/(Пиксели*Кадры) : 0.225
Размер потока : 464 Мбайт (80%)
Библиотека кодирования : XviD 1.2.1 (UTC 2008-12-04)
Аудио #1
Идентификатор : 1
Формат : MPEG Audio
Версия формата : Version 1
Профиль формата : Layer 3
Режим : Joint stereo
Расширение режима : MS Stereo
Идентификатор кодека : 55
Идентификатор кодека/Подсказка : MP3
Продолжительность : 41 м.
Вид битрейта : Постоянный
Битрейт : 192 Кбит/сек
Каналы : 2 канала
Частота : 48,0 КГц
Метод сжатия : С потерями
Размер потока : 57,3 Мбайт (10%)
Выравнивание : Соединение по промежуткам
Продолжительность промежутка : 42 мс. (1,00 видеокадр)
Время предзагрузки промежутка : 504 мс.
Библиотека кодирования : LAME3.99r
Настройки программы : -m j -V 4 -q 2 -lowpass 18.6 -b 192
Аудио #2
Идентификатор : 2
Формат : MPEG Audio
Версия формата : Version 1
Профиль формата : Layer 3
Режим : Joint stereo
Расширение режима : MS Stereo
Идентификатор кодека : 55
Идентификатор кодека/Подсказка : MP3
Продолжительность : 41 м.
Вид битрейта : Постоянный
Битрейт : 192 Кбит/сек
Каналы : 2 канала
Частота : 48,0 КГц
Метод сжатия : С потерями
Размер потока : 57,3 Мбайт (10%)
Выравнивание : Соединение по промежуткам
Продолжительность промежутка : 42 мс. (1,00 видеокадр)
Время предзагрузки промежутка : 504 мс.
Библиотека кодирования : LAME3.99r
Настройки программы : -m j -V 4 -q 2 -lowpass 18.6 -b 192
-

Скриншот c названием фильма

-Скриншоты:
-

Еще

-

Как закачать отдельный файл

1. Открыть торрент
2. Снять галки с тех файлов торрента, которые мы не хотим закачивать. Оставляем только на нужных нам файлах (файле).
3. Нажать О.К.
В клиенте utorrent
Инструкция
1) Открыть торрент

2) Снять галки с тех файлов торрента, которые мы не хотим закачивать:
* либо вручную, снимая с каждого файла галку( скрин №1)
* либо, нажав кнопку "Снять метки (Select None)", сняв сразу со всех файлов(скрин №2)
№1

№2

Оставляем только на нужных нам файлах (файле).

3)Нажать О.К
Яндекс.Метрика
Рейтинг@Mail.ru