Подозреваемый / В поле зрения / Person of Interest (Сезон: 4 / Серии: 1-11) (Ричард Дж. Льюис / Richard J. Lewis...) [2011 - 2014 г., фантастика, боевик, триллер, драма, детектив, WEB-DLRip, 720p] MVO (NewStudio) + Original (Eng) [обновляемая]

 

Создавать темы 12-Янв-2015 04:44

Подозреваемый / В поле зрения / Person of Interest«Ever think you're being watched?» -Производство: США, Kilter Films, Bad Robot, Warner Bros. Television See
Жанр: фантастика, боевик, триллер, драма, детектив
Год выпуска: 2011-2014 г.
Продолжительность: 11 cерий по ~ 00:43:37
Мировая премьера: 22 сентября 2011
Российская премьера: 8 января 2013
Перевод: Профессиональный (многоголосый, закадровый) [NewStudio (Weirdie)]
Оригинальный аудиопоток: английский-Режиссер: Ричард Дж. Льюис / Richard J. Lewis, Крис Фишер / Chris Fisher, Фред Туа / Fred Toye
Сценарий: Эми Берг, Тони Камерино, Дэн Дитц
Продюсер: Джей Джей Абрамс, Брайан Берк, Кэти Линг
Оператор: Теодоро Маньячи, Мануэль Биллетер, Дэвид Инсли
Композитор: Рамин Джавади
Художник: Рик Батлер, Дэн Ли, Калина Иванов
Монтаж: Марк Конте, Рэй Дэниелс III, Ryan Malanaphy-В ролях: Джеймс Кэвизел, Майкл Эмерсон, Кевин Чэпмен, Тараджи П. Хенсон, Эми Экер, Роберт Джон Бёрк, Эл Сапьенза, Энрико Колантони, Бреннан Браун, Бретт Каллен-Описание: Предполагаемо погибший бывший агент ЦРУ Риз объединяется с таинственным миллионером чтобы предотвращать преступления. Подготовка Риза в проведении операций под прикрытием привлекает внимание миллионера Финча, гения-программиста, который изобрел программу, позволяющую предсказывать преступные склонности людей на базе анализа поведения. Используя последние достижения техники, эти двое часто преступают закон, используя навыки Риза и бесконечное богатство Финча, и останавливают преступников еще до совершения преступления. Действия Риза привлекают к себе внимание детектива Картер из отдела убийств и полицейского Фаско, которого Риз использует в своих целях. Риз и Финч понимают, что правильный человек с правильной информацией в нужное время и в нужном месте может изменить все.-Качество видео: WEB-DLRip
Контейнер: MKV
Стандарт разрешения: 720p
Видео кодек: H.264
Аудио кодек: AC3
Видео: 3970 Кбит/сек; 1280*718 (16:9); в 23,976 кадра/сек; AVC; 0.180 Бит/(Пиксели*Кадры)
Аудио: Русский; 384 Кбит/сек; 48,0 КГц; 16 бит; 6 каналов; АС-3 |NewStudio|
Аудио #2: Английский; 384 Кбит/сек; 48,0 КГц; 16 бит; 6 каналов; АС-3 |Original|
Cубтитры: русские
Формат субтитров: softsub (SSA/ASS)

Список серий

  • Паноптикум (Panopticon)
  • Моллюск (Nautilus)
  • Пикапер (Wingman)
  • Братство (Brotherhood)
  • Пророки (Prophets)
  • Претенденты (Pretenders)
  • Воровская честь (Honor Among Thieves)
  • Точка отсчета (Point of Origin)
  • Меньшее из двух зол (The Devil You Know)
  • Холодная война (Cold War)
  • Если-Тогда-Иначе (If-Then-Else)

Media Info

Общее
Уникальный идентификатор : 220164107402593958831211829505689515739 (0xA5A21091012C3EE39B46749AA0EDF6DB)
Формат : Matroska
Версия формата : Version 2
Размер файла : 1,47 Гбайт
Продолжительность : 43 м.
Общий поток : 4834 Кбит/сек
Дата кодирования : UTC 2014-09-24 22:20:21
Программа кодирования : mkvmerge v2.9.9 ('Tutu') built on Nov 25 2009 21:13:32
Библиотека кодирования : libebml v0.7.9 + libmatroska v0.8.1
Видео
Идентификатор : 1
Формат : AVC
Формат/Информация : Advanced Video Codec
Профиль формата : [email protected]
Параметр CABAC формата : Нет
Параметр ReFrames формата : 2 кадра
Идентификатор кодека : V_MPEG4/ISO/AVC
Продолжительность : 43 м.
Битрейт : 3970 Кбит/сек
Ширина : 1280 пикселей
Высота : 718 пикселей
Соотношение сторон : 16:9
Режим частоты кадров : Постоянный
Частота кадров : 23,976 кадра/сек
Цветовое пространство : YUV
Субдискретизация насыщенности : 4:2:0
Битовая глубина : 8 бит
Тип развёртки : Прогрессивная
Бит/(Пиксели*Кадры) : 0.180
Размер потока : 1,21 Гбайт (82%)
Язык : English
Default : Нет
Forced : Нет
Основные цвета : BT.709
Характеристики трансфера : BT.709
Коэффициенты матрицы : BT.709
Аудио #1
Идентификатор : 2
Формат : AC-3
Формат/Информация : Audio Coding 3
Расширение режима : CM (complete main)
Параметр Endianness формата : Big
Идентификатор кодека : A_AC3
Продолжительность : 43 м.
Вид битрейта : Постоянный
Битрейт : 384 Кбит/сек
Каналы : 6 каналов
Расположение каналов : Front: L C R, Side: L R, LFE
Частота : 48,0 КГц
Битовая глубина : 16 бит
Метод сжатия : С потерями
Размер потока : 120 Мбайт (8%)
Язык : Russian
Default : Да
Forced : Да
Аудио #2
Идентификатор : 3
Формат : AC-3
Формат/Информация : Audio Coding 3
Расширение режима : CM (complete main)
Параметр Endianness формата : Big
Идентификатор кодека : A_AC3
Продолжительность : 43 м.
Вид битрейта : Постоянный
Битрейт : 384 Кбит/сек
Каналы : 6 каналов
Расположение каналов : Front: L C R, Side: L R, LFE
Частота : 48,0 КГц
Битовая глубина : 16 бит
Метод сжатия : С потерями
Размер потока : 120 Мбайт (8%)
Язык : English
Default : Нет
Forced : Нет
Текст
Идентификатор : 4
Формат : ASS
Идентификатор кодека : S_TEXT/ASS
Идентификатор кодека/Информация : Advanced Sub Station Alpha
Метод сжатия : Без потерь
Default : Да
Forced : Да

Скриншоты

--

Внимание! Раздача ведётся путём добавления новых серий!

  • Раздача ведётся путём добавления новых серий. При каждом добавлении создётся новый торрент.
  • Чтобы начать докачку новой серии, пользователям необходимо сделать следующее:
    1. остановить скачивание;
    2. удалить старый торрент у себя из клиента (старые серии удалять не надо);
    3. скачать новый торрент и запустить его у себя в клиенте вместо старого, при этом указать клиенту путь в старую папку, куда и должно происходить скачивание новых серий.
  • Ваш клиент при этом должен произвести хеширование (проверку) старой папки (если не производит сам - помогите ему сделать это), и будет докачивать только те серии которых у вас ещё нет. Старые серии при этом не удаляются, а продолжают раздаваться!
  • Eсли вы уже удалили старые серии, то предотвратить повторную закачку старых серий можно, отжав галочку в соответсвующих местах при запуске нового торрента. По возможности, желательно не удалять старые серии как можно дольше, чтобы релизёр не столько продолжал раздавать старые серии, а смог сконцентрироваться на новых.
  • Совет для тех, кто не хочет ждать перехеширования:
    Создайте ещё одну папку рядом с папкой сериала (рядом, а не в ней!!!). Каждую новую серию после удачной загрузки копируйте в новую папку так чтобы ваша основная папка всегда была пуста. Когда ваш новый торрент предложит вам закачать все файлы, выберете только последнюю. Для сидирования же укажите адрес новой папки.

Как закачать отдельный файл

1. Открыть торрент
2. Снять галки с тех файлов торрента, которые мы не хотим закачивать. Оставляем только на нужных нам файлах (файле).
3. Нажать О.К.
В клиенте utorrent
Инструкция
1) Открыть торрент

2) Снять галки с тех файлов торрента, которые мы не хотим закачивать:
* либо вручную, снимая с каждого файла галку (скрин №1)
* либо, нажав кнопку "Снять метки (Select None)", сняв сразу со всех файлов (скрин №2)
№1

№2

Оставляем только на нужных нам файлах (файле).

3)Нажать О.К
Яндекс.Метрика
Рейтинг@Mail.ru