[ Сегодня на трекере фрилич! Идет свободное скачивание без начисления Download ]

Охотник на лис / Foxcatcher (Беннетт Миллер / Bennett Miller) [2014 г., драма, спорт, история, HDTVRip] DVO (ColdFilm) + Original (Eng)

 

Создавать темы 12-Янв-2015 04:43

-Охотник на лис / Foxcatcher- Производство: США / Annapurna Pictures, Likely Story, Media Rights Capital
Год выпуска: 2014 г.
Жанр: драма, спорт, история
Продолжительность: 02:08:59
Мировая премьера: 19 мая 2014
Российская премьера: 29 января 2015, «Парадиз»
Перевод: Любительский (двухголосый, закадровый) [ColdFilm]
Оригинальный аудиопоток: английский-Режиссер: Беннетт Миллер / Bennett Miller
В ролях: Ченнинг Татум, Стив Карелл, Марк Руффало, Сиенна Миллер, Ванесса Редгрейв, Энтони Майкл Холл, Гай Бойд, Бретт Райс, Джексон Фрейзер, Самара Ли-Описание: Мультимиллионер Джон Дюпон приглашает в свое поместье обладателя олимпийской золотой медали по борьбе Марка Шульца для подготовки команды к Олимпийским играм в Сеуле 1988 года. В надежде посвятить всего себя тренировкам, достойно выступить и выйти из тени своего брата, легендарного борца Дейва Шульца, Марк принимает предложение. Но параноик Дюпон затевает игру в кошки-мышки с Марком и Дейвом. Эта жестокая игра отдаляет братьев и ведет к нелепой трагедии.- -Качество видео: HDTVRip
Контейнер: AVI
Видео кодек: XviD
Аудио кодек: AC3
Видео: 720x384 (1.88:1), 25 fps, XviD build 50 ~1882 kbps avg, 0.27 bit/pixel
Аудио: 44.1 kHz, AC3 Dolby Digital, 2/0 (L,R) ch, ~256 kbps - Rus
Аудио #2: 48 kHz, AC3 Dolby Digital, 2/0 (L,R) ch, ~128 kbps - Eng
Cубтитры: отсутствуют

Media Info

General
Complete name : D:\Ohotnik.na.lis.2014.HDTVRip.avi
Format : AVI
Format/Info : Audio Video Interleave
Format profile : OpenDML
File size : 2.05 GiB
Duration : 2h 8mn
Overall bit rate : 2 274 Kbps
Writing application : VirtualDubMod 1.5.10.2 (build 2540/release)
Writing library : VirtualDubMod build 2540/release
Video
ID : 0
Format : MPEG-4 Visual
Format profile : Advanced [email protected]
Format settings, BVOP : 2
Format settings, QPel : No
Format settings, GMC : No warppoints
Format settings, Matrix : Default (MPEG)
Codec ID : XVID
Codec ID/Hint : XviD
Duration : 2h 8mn
Bit rate : 1 871 Kbps
Width : 720 pixels
Height : 384 pixels
Display aspect ratio : 1.85:1
Frame rate : 25.000 fps
Color space : YUV
Chroma subsampling : 4:2:0
Bit depth : 8 bits
Scan type : Progressive
Compression mode : Lossy
Bits/(Pixel*Frame) : 0.271
Stream size : 1.69 GiB (82%)
Writing library : XviD 1.2.1 (UTC 2008-12-04)
Audio #1
ID : 1
Format : AC-3
Format/Info : Audio Coding 3
Mode extension : CM (complete main)
Format settings, Endianness : Big
Codec ID : 2000
Duration : 2h 8mn
Bit rate mode : Constant
Bit rate : 256 Kbps
Channel(s) : 2 channels
Channel positions : Front: L R
Sampling rate : 44.1 KHz
Bit depth : 16 bits
Compression mode : Lossy
Stream size : 236 MiB (11%)
Alignment : Split accross interleaves
Interleave, duration : 40 ms (1.00 video frame)
Interleave, preload duration : 500 ms
Audio #2
ID : 2
Format : AC-3
Format/Info : Audio Coding 3
Mode extension : CM (complete main)
Format settings, Endianness : Big
Codec ID : 2000
Duration : 2h 8mn
Bit rate mode : Constant
Bit rate : 128 Kbps
Channel(s) : 2 channels
Channel positions : Front: L R
Sampling rate : 48.0 KHz
Bit depth : 16 bits
Compression mode : Lossy
Stream size : 118 MiB (6%)
Alignment : Split accross interleaves
Interleave, duration : 40 ms (1.00 video frame)
Interleave, preload duration : 500 ms

Скриншоты

Яндекс.Метрика
Рейтинг@Mail.ru