(Heavy Metal) Battle Beast - Battle Beast - 2013 [FLAC, image+.cue, lossless]

 

Создавать темы 11-Янв-2015 16:57

-Battle Beast / Battle Beast-- Год издания: 2013
Страна: Finland
Жанр: Heavy Metal
Продолжительность: 00:52:09-Лейбл издания: Nuclear Blast
Страна-выпуска диска: Germany
Номер по каталогу: NB 3037-0
Формат: FLAC
Битрейт аудио: lossless
Тип рипа: image+.cue
Наличие сканов в содержимом раздачи: да

Трэклист

01.Let It Roar (03:40)
02.Out Of Control (03:47)
03.Out On The Streets (02:55)
04.Neuromancer (04:04)
05.Raven (02:52)
06.Into The Heart Of Danger (05:26)
07.Machine Revolution (04:04)
08.Golden Age (01:57)
09.Kingdom (05:00)
10.Over The Top (02:37)
11.Fight, Kill, Die (02:44)
12.Black Ninja (04:02)
13.Rain Man (05:12)
14.Shutdown (03:44)

Лог создания рипа

Exact Audio Copy V1.0 beta 3 from 29. August 2011
EAC extraction logfile from 16. May 2013, 19:41
Battle Beast / Battle Beast
Used drive  : ATAPI   DVD A  DH16ABSH   Adapter: 0  ID: 1
Read mode               : Secure
Utilize accurate stream : Yes
Defeat audio cache      : Yes
Make use of C2 pointers : No
Read offset correction                      : 6
Overread into Lead-In and Lead-Out          : No
Fill up missing offset samples with silence : Yes
Delete leading and trailing silent blocks   : No
Null samples used in CRC calculations       : Yes
Used interface                              : Installed external ASPI interface
Used output format : Internal WAV Routines
Sample format      : 44.100 Hz; 16 Bit; Stereo
TOC of the extracted CD
Track |   Start  |  Length  | Start sector | End sector
---------------------------------------------------------
1  |  0:00.00 |  3:40.22 |         0    |    16521
2  |  3:40.22 |  3:47.21 |     16522    |    33567
3  |  7:27.43 |  2:55.15 |     33568    |    46707
4  | 10:22.58 |  4:04.31 |     46708    |    65038
5  | 14:27.14 |  2:52.09 |     65039    |    77947
6  | 17:19.23 |  5:26.26 |     77948    |   102423
7  | 22:45.49 |  4:04.69 |    102424    |   120792
8  | 26:50.43 |  1:57.12 |    120793    |   129579
9  | 28:47.55 |  5:00.40 |    129580    |   152119
10  | 33:48.20 |  2:37.57 |    152120    |   163951
11  | 36:26.02 |  2:44.10 |    163952    |   176261
12  | 39:10.12 |  4:02.11 |    176262    |   194422
13  | 43:12.23 |  5:12.00 |    194423    |   217822
14  | 48:24.23 |  3:44.60 |    217823    |   234682
Range status and errors
Selected range
Filename D:\privateer1664\Battle Beast - Battle Beast.wav
Peak level 98.8 %
Extraction speed 8.1 X
Range quality 99.9 %
Test CRC 0E44F415
Copy CRC 0E44F415
Copy OK
No errors occurred
AccurateRip summary
Track  1  not present in database
Track  2  not present in database
Track  3  not present in database
Track  4  not present in database
Track  5  not present in database
Track  6  not present in database
Track  7  not present in database
Track  8  not present in database
Track  9  not present in database
Track 10  not present in database
Track 11  not present in database
Track 12  not present in database
Track 13  not present in database
Track 14  not present in database
None of the tracks are present in the AccurateRip database
End of status report
---- CUETools DB Plugin V2.1.3
[CTDB TOCID: B.zLpcO_jl0mwpzCMOukihCFKYw-] disk not present in database, Submit result: B.zLpcO_jl0mwpzCMOukihCFKYw- has been uploaded

Индексная карта (non-compilant .cue)

REM GENRE "Heavy Metal"
REM DATE 2013
REM DISCID B90C390E
REM COMMENT "ExactAudioCopy v1.0b3"
PERFORMER "Battle Beast"
TITLE "Battle Beast"
FILE "Battle Beast - Battle Beast.flac" WAVE
TRACK 01 AUDIO
TITLE "Let It Roar"
PERFORMER "Battle Beast"
INDEX 01 00:00:00
TRACK 02 AUDIO
TITLE "Out Of Control"
PERFORMER "Battle Beast"
INDEX 01 03:40:22
TRACK 03 AUDIO
TITLE "Out On The Streets"
PERFORMER "Battle Beast"
INDEX 00 07:25:32
INDEX 01 07:27:43
TRACK 04 AUDIO
TITLE "Neuromancer"
PERFORMER "Battle Beast"
INDEX 01 10:22:58
TRACK 05 AUDIO
TITLE "Raven"
PERFORMER "Battle Beast"
INDEX 01 14:27:14
TRACK 06 AUDIO
TITLE "Into The Heart Of Danger"
PERFORMER "Battle Beast"
INDEX 00 17:16:65
INDEX 01 17:19:23
TRACK 07 AUDIO
TITLE "Machine Revolution"
PERFORMER "Battle Beast"
INDEX 01 22:45:49
TRACK 08 AUDIO
TITLE "Golden Age"
PERFORMER "Battle Beast"
INDEX 01 26:50:43
TRACK 09 AUDIO
TITLE "Kingdom"
PERFORMER "Battle Beast"
INDEX 01 28:47:55
TRACK 10 AUDIO
TITLE "Over The Top"
PERFORMER "Battle Beast"
INDEX 01 33:48:20
TRACK 11 AUDIO
TITLE "Fight, Kill, Die"
PERFORMER "Battle Beast"
INDEX 01 36:26:02
TRACK 12 AUDIO
TITLE "Black Ninja"
PERFORMER "Battle Beast"
INDEX 00 39:07:35
INDEX 01 39:10:12
TRACK 13 AUDIO
TITLE "Rain Man"
PERFORMER "Battle Beast"
INDEX 01 43:12:23
TRACK 14 AUDIO
TITLE "Shutdown"
PERFORMER "Battle Beast"
INDEX 00 48:22:37
INDEX 01 48:24:23

Скриншот спектра частот

--Не забываем говорить
Яндекс.Метрика
Рейтинг@Mail.ru