Philizz - Сборник клипов "Video YearMix" (2014) HDRip-AVC | Bonus

 

Создавать темы 11-Янв-2015 15:50

-Philizz - Сборник клипов "Video YearMix"- Оригинальное название: Philizz Video YearMix + Bonus
Год выхода: 2014
Жанр: Pop, Club, Dance, Video-Megamix
О фильме:
Сборник клипов "YEARMIX-2014": все закручено и заверчено фирменным миксом от голландского ви-джея Philizz.
"YEARMIX-2014" - это своего рода обзор лучших клипов прошлого года по версии Philizz.
В качестве бонуса - Minimix Adventures (DJ IC ft Philizz). Приятного просмотра!


Страна: Нидерланды
Продолжительность: 01:19:24
Перевод: Оригинал (не требуется)
Качество: HDRip-AVC | Сэмпл: Скачать
Видео: V_MPEG4/AVC, 720x400 (16:9), ~ 2200 Кбит/сек, 25.000 fps
Звук: AC3, 2ch, ~ 256 Kbps, 48000Hz-

Треклист

Philizz Video YearMix 2014
One Direction - Steal My Girl
Taylor Swift - Shake It Off
Little Mix - Little Me
Iggy Azalea ft. Rita Ora - Black Widow
The - Superheroes
Sam Smith - Stay With Me
Aloe Blacc - The Man
Sia - Chandelier
David Guetta ft. Sam Martin - Dangerous
Maroon 5 - Animals
Katy Perry - This Is How We Do
Enrique Iglesias ft. Descemer Bueno - Bailando
Charli XCX - Boom Clap
Coldplay - Magic
Iggy Azalea ft. Charli XCX - Fancy
Taylor Swift - Blank Space
Sam Smith - I’m Not The Only One
Jake Miller - First Flight Home
Mapei - Don’t Wait
Ariana Grande ft. The Weeknd - Love Me Harder
Jennifer Lopez - First Love
Lorde - Team
Gwen Stefani - Baby Don’t Lie
Kygo & Kyla La Grange - Cut Your Teeth
Fifth Harmony - Sledgehammer
Ariana Grande ft. Iggy Azalea - Problem
Marlon Roudette - When The Beat Drops Out
5 Seconds Of Summer - Amnesia
Shawn Mendes - Something Big
Mark Ronson ft. Bruno Mars - Uptown Funk
Pharrell Williams - Marilyn Monroe
Michael Jackson ft. Justin Timberlake - Love Never Felt So Good
Elyar Fox - Do It All Over Again
Tiësto ft. Matthew Koma - Wasted
Nick Jonas - Jealous
Kiesza - No Enemiesz
Kiesza - Giant In My Heart
Milky Chance - Stolen Dance
Duke Dumont - Won’t Look Back
Clean Bandit ft. Jess Glynne - Rather Be
Tube & Berger, Juliet Sikora - Come On Now (Set It Off)
The Magician ft. Years & Years - Sunlight
Route 94 ft. Jess Glynne - My Love
Kiesza - Hideaway
Gorgon City ft. MNEK - Ready For Your Love
Pitbull ft. John Ryan - Fireball
Lilly Wood & The Prick ft. Robin Schulz - Prayer in C
Tove Lo - Habits (Stay High) (Hippie Sabotage Mix)
Duke Dumont ft. Jax Jones - I Got U
Becky G - Shower
OneRepublic - I Lived
Avicii - Addicted to You
Bucie ft. Heavy K - Easy to Love
Carlprit ft. Jaicko - Only Gets Better
Katy Perry - Birthday
Faul & Wad Ad vs. Pnau - Changes
Anders Nilsen - Salsa Tequila
Coldplay - A Sky Full Of Stars
Galantis - Runaway (U & I)
Katy Perry - Dark Horse
David Guetta & Showtek ft. Vassy - Bad
David Guetta ft. Skylar Grey - Shot Me Down
New World Sound & Thomas Newson - Flute
Duck Sauce - NRG
Frank & Jelte - Press.Play.Jump
Echosmith - Cool Kids
Carlprit ft. Jaicko - Remember To Forget
Nico & Vinz - Am I Wrong
Mr Probz - Waves
Jessie J ft. Ariana Grande & Nicki Minaj - Bang Bang
Calvin Harris ft. John Newman - Blame
Ariana Grande ft. Zedd - Break Free
B.o.B ft. Priscilla - John Doe
Nicki Minaj - Anaconda
The Chainsmokers - #SELFIE
AronChupa - I'm an Albatraoz
Firebeatz & KSHMR ft. Luciana - No Heroes
Fatboy Slim & Riva Starr ft. Beardyman - Eat Sleep Rave Repeat
Calvin Harris - Summer
Sam Smith - Money On My Mind
David Guetta ft. Sam Martin - Lovers On The Sun
Pitbull ft. Jennifer Lopez & Cláudia Leitte - We Are One (Ole Ola)
Austin Mahone ft. Pitbull - Mmm Yeah
Shakira ft. Rihanna - Can’t Remember to Forget You
Meghan Trainor - All About That Bass
Shakira - Dare (La La La)
Hardwell feat. Matthew Koma - Dare You
Rita Ora - I Will Never Let You Down
Timmy Trumpet & Savage - Freaks
Armin van Buuren - Hystereo
Meghan Trainor - Lips Are Movin’
Yellow Claw ft. Rochelle - Shotgun
Sigma - Nobody To Love
2014. DJ IC ft. Philizz - Minimix Adventures S02E03 (Bonus)
Aaliyah - One In A Million (Mayeda Remix)
Miley Cyrus - Adore You (Massive Mix)
HOWARD JONES vs SHOWTEK - THE PARTY CAN ONLY GET BETTER (STARJACK BOOTLEG)
Eric Clapton - Cocaine (Gazzo Remix)
Anthem Kingz - Lets Get This Party Started (Massive Big Room Party Starter) - search on crooklyn clan for that track
Rihanna - Warrior
Alicia Keys, Bingo Players and SikDuo - Rattle New York - SikDuo Bootleg
Duck Sauce - It's You
Anthem Kingz - Story Of My Life (One Direction Mainstream Banger) - again on Crooklyn clan
The_Goodfellas_Shake_Whatcha_Mama_Gave_Ya_Boneless - Crooklyn clan
The Outfield vs Calvin Harris ft Ellie Goulding - Your Love I Need (MadMixMax)
Pitbull feat. Ke$ha - Timber (Extended Edit by MixmstrStel)
Sage The Gemini - College Drop
Chris Brown ft. Lil Wayne & French Montana - Loyal
Mya - Case Of The Ex (Cosenza Twerk Remix)
Babys_Daddy_Underground_ReFix_QH
-

MediaInfo

General
Unique ID                                : 213949277422112756303712140102575671623
(0xA0F521CA8994E22EB9D3C1D524314947)
Complete name                            : Philizz.Yearmix.2014.HDRip-AVC.mkv
Format                                   : Matroska
Format version                           : Version 4 / Version 2
File size                                : 1.37 GiB
Duration                                 : 1h 19mn
Overall bit rate mode                    : Variable
Overall bit rate                         : 2 461 Kbps
Encoded date                             : UTC 2015-01-11 08:47:39
Writing application                      : mkvmerge v7.3.0 ('Nouages') 64bit built on Oct 22 2014 18:53:34
Writing library                          : libebml v1.3.0 + libmatroska v1.4.1
DURATION                                 : 01:19:24.544000000
NUMBER_OF_FRAMES                         : 148892
NUMBER_OF_BYTES                          : 152465408
_STATISTICS_WRITING_APP                  : mkvmerge v7.3.0 ('Nouages') 64bit built on Oct 22 2014 18:53:34
_STATISTICS_WRITING_DATE_UTC             : 2015-01-11 08:47:39
_STATISTICS_TAGS                         : BPS DURATION NUMBER_OF_FRAMES NUMBER_OF_BYTES
Video
ID                                       : 1
Format                                   : AVC
Format/Info                              : Advanced Video Codec
Format profile                           : [email protected]
Format settings, CABAC                   : Yes
Format settings, ReFrames                : 12 frames
Codec ID                                 : V_MPEG4/ISO/AVC
Duration                                 : 1h 19mn
Bit rate mode                            : Variable
Bit rate                                 : 2 200 Kbps
Maximum bit rate                         : 40.0 Mbps
Width                                    : 720 pixels
Height                                   : 400 pixels
Display aspect ratio                     : 16:9
Frame rate mode                          : Constant
Frame rate                               : 25.000 fps
Color space                              : YUV
Chroma subsampling                       : 4:2:0
Bit depth                                : 8 bits
Scan type                                : Progressive
Bits/(Pixel*Frame)                       : 0.306
Stream size                              : 1.20 GiB (88%)
Writing library                          : x264 core 142 r2479M dd79a61
Encoding settings                        : cabac=1 / ref=12 / deblock=1:0:0 / analyse=0x3:0x133 / me=tesa / subme=11 / psy=1 / psy_rd=1,05:0,10 / mixed_ref=1 / me_range=24 / chroma_me=1 / trellis=2 / 8x8dct=1 / cqm=0 / deadzone=21,11 / fast_pskip=0 / chroma_qp_offset=-3 / threads=4 / lookahead_threads=1 / sliced_threads=0 / nr=0 / decimate=1 / interlaced=0 / bluray_compat=0 / constrained_intra=0 / bframes=12 / b_pyramid=2 / b_adapt=2 / b_bias=0 / direct=3 / weightb=1 / open_gop=0 / weightp=2 / keyint=250 / keyint_min=25 / scenecut=40 / intra_refresh=0 / rc_lookahead=240 / rc=2pass / mbtree=1 / bitrate=2200 / ratetol=1,0 / qcomp=0,70 / qpmin=3 / qpmax=69 / qpstep=4 / cplxblur=20,0 / qblur=0,5 / ip_ratio=1,40 / aq=2:1,0
Language                                 : English
Default                                  : Yes
Forced                                   : No
Audio
ID                                       : 2
Format                                   : AC-3
Format/Info                              : Audio Coding 3
Mode extension                           : CM (complete main)
Format settings, Endianness              : Big
Codec ID                                 : A_AC3
Duration                                 : 1h 19mn
Bit rate mode                            : Constant
Bit rate                                 : 256 Kbps
Channel(s)                               : 2 channels
Channel positions                        : Front: L R
Sampling rate                            : 48.0 KHz
Bit depth                                : 16 bits
Compression mode                         : Lossy
Stream size                              : 145 MiB (10%)
Language                                 : English
Default                                  : Yes
Forced                                   : No
Menu
00:00:00.000                             : en:Philizz.Yearmix.2014
00:58:14.920                             : en:DJIC.ft.PhilizzBonus
-

Скриншоты:

-

Дополнительная информация + Poster


- Мегамикс - это видеосборник, составленный из небольших фрагментов клипов.
- Видеомикс - довольно новое, но уже популярное явление в современной музыкальной культуре,
насчитывающее всего несколько лет. Разбивка по трекам отсутствует.
-
Яндекс.Метрика
Рейтинг@Mail.ru