Лавка ужасов / Little Shop of Horrors (1986) BDRip 1080p от msltel

 

Создавать темы 04-Окт-2013 18:02

Название: Лавка ужасов
Оригинальное название: Little Shop of Horrors
Год выпуска: 1986
Жанр: Мюзикл, комедия
Выпущено: США, The Geffen Company
Режиссер: Фрэнк Оз
В ролях: Рик Моранис, Эллен Грин, Винсент Гардения, Стив Мартин, Тичина Арнольд, Мишель Викс, Тиша Кэмпбелл, Леви Стаббс, Джеймс Белуши, Джон Кэнди, Кристофер Гест, Билл Мюррэй, Стэн Джонс, Бертис Ридинг, Эд Уайли, Алан Тилверн, Джон Скотт Мартин, Винсент Вонг, Дэнни Каннингэм, Дэнни Джон-Джулс, Гари Палмер, Пол Суоби, Милдред Шоу, Кевин Скотт, Келли Хантли, Пол Рейнольдс, Мириам Марголис, Фрэнк Дюкс, Питер Уитман, Хезер Хенсон, Джудит Морс, Боб Шерман, Керри Шейл, Роберт Арден, Боб Сессионс, Майкл Шеннон
О фильме: В цветочном магазине выставили странное растение — зловещий цветок, с появлением которого и началась эта история. Цветок не нуждался в обычном уходе, в поливке, в солнечном свете, потому что, по природе своей, он… людоед. И каждый вечер он ждёт новую жертву к себе на ужин. Эта знаменитая, прогремевшая на всю Америку, картина — великолепный мюзикл, забавный и страшный одновременно, с участием монстра — цветка и известнейших американских комиков.
Качество: BDRip 1080p
Размер: 13.09 ГБ
Продолжительность: 01:33:54
Видео: MPEG-4 AVC, 17.1 Mбит/с, 1920x1080
Аудио 1: русский, 48 kHz, AC3, 2 ch, 192 kbps avg, [Профессиональный многоголосый]
Аудио 2: русский, 48 kHz, AC3, 6 ch, 384 kbps avg, [Авторский, Антон Алексеев]
Аудио 3: русский, 48 kHz, AC3, 2 ch, 192 kbps avg, [Авторский, Алексей Михалёв]
Аудио 4: английский, 48 kHz, DTS, 6 ch, 1509 kbps avg, [Оригинал]
Аудио 5: английский, 48 kHz, AC3, 2 ch, 192 kbps avg, [Комментарий]
Субтитры: английские
Имеются неименованные главы/чаптеры
Сравнение с исходником

Награды

Британская академия, 1988 год
Номинации (1):
Лучшие визуальные эффекты
Оскар, 1987 год
Номинации (2):
Лучшие визуальные эффекты
Лучшая песня — «Mean Green Mother from Outer Space»
Золотой глобус, 1987 год
Номинации (2):
Лучший фильм (комедия или мюзикл)
Лучший саундтрек
Сатурн, 1987 год
Победитель (1):
Лучшая музыка
Номинации (4):
Лучший фильм ужасов
Лучший сценарий
Лучшие костюмы
Лучшие спецэффекты

Из отзывов...

Ybr
Это чудо, а не фильм. Поражён до глубины души - как в далёком 1986 году возможно с помощью только лишь грима и прочих трюков, без всякой графики, добиться такой мимики цветка. Он разговаривает как живой.
Очень понравился вступительный клип, игра актёров тоже очень хороша, особенно Рика Мораниса. Вообще, фильм — настоящий шедевр. Не понятно, почему он так мало заработал в кинотеатрах (или тогда это было много?).
Кинопоиск

MediaInfo + Лог х264

Общее
Уникальный идентификатор : 176324904870687200716611936503792943612 (0x84A6F1011BD95F2882B54199A55C41FC)
Полное имя : E:VideoLavka.ugasov.TheaCut.1986.x264.BDRip.1080p.mkv
Формат : Matroska
Версия формата : Version 4 / Version 2
Размер файла : 13,1 Гбайт
Продолжительность : 1 ч. 33 м.
Общий поток : 20,0 Мбит/сек
Название фильма : Лавка ужасов (Театральная версия) / Little Shop of Horrors (TheaterCut) / 1986 / BDRip -- STarankov
Дата кодирования : UTC 2013-10-01 09:59:48
Программа кодирования : mkvmerge v6.4.1 ('Omega Point') built on Sep 16 2013 22:05:10
Библиотека кодирования : libebml v1.3.0 + libmatroska v1.4.1
Видео
Идентификатор : 1
Формат : AVC
Формат/Информация : Advanced Video Codec
Профиль формата : [email protected]
Параметр CABAC формата : Да
Параметр ReFrames формата : 4 кадра
Идентификатор кодека : V_MPEG4/ISO/AVC
Продолжительность : 1 ч. 33 м.
Битрейт : 17,1 Мбит/сек
Ширина : 1920 пикселей
Высота : 1080 пикселей
Соотношение сторон : 16:9
Режим частоты кадров : Постоянный
Частота кадров : 23,976 кадра/сек
Цветовое пространство : YUV
Субдискретизация насыщенности : 4:2:0
Битовая глубина : 8 бит
Тип развёртки : Прогрессивная
Бит/(Пиксели*Кадры) : 0.344
Размер потока : 11,2 Гбайт (86%)
Библиотека кодирования : x264 core 138 r2358 9e941d1
Настройки программы : cabac=1 / ref=4 / deblock=1:-3:-3 / analyse=0x3:0x113 / me=umh / subme=10 / psy=1 / psy_rd=1.00:0.15 / mixed_ref=1 / me_range=24 / chroma_me=1 / trellis=2 / 8x8dct=1 / cqm=0 / deadzone=21,11 / fast_pskip=0 / chroma_qp_offset=-3 / threads=6 / lookahead_threads=1 / sliced_threads=0 / nr=0 / decimate=1 / interlaced=0 / bluray_compat=0 / constrained_intra=0 / bframes=8 / b_pyramid=2 / b_adapt=2 / b_bias=0 / direct=1 / weightb=1 / open_gop=0 / weightp=2 / keyint=230 / keyint_min=23 / scenecut=40 / intra_refresh=0 / rc_lookahead=40 / rc=crf / mbtree=0 / crf=19.5 / qcomp=0.60 / qpmin=0 / qpmax=69 / qpstep=4 / vbv_maxrate=50000 / vbv_bufsize=62500 / crf_max=0.0 / nal_hrd=none / ip_ratio=1.40 / pb_ratio=1.30 / aq=1:1.00
Язык : English
Default : Да
Forced : Нет
Аудио #1
Идентификатор : 2
Формат : AC-3
Формат/Информация : Audio Coding 3
Расширение режима : CM (complete main)
Параметр Endianness формата : Big
Идентификатор кодека : A_AC3
Продолжительность : 1 ч. 33 м.
Вид битрейта : Постоянный
Битрейт : 192 Кбит/сек
Каналы : 2 канала
Расположение каналов : Front: L R
Частота : 44,1 КГц
Битовая глубина : 16 бит
Метод сжатия : С потерями
Размер потока : 129 Мбайт (1%)
Заголовок : MVO
Язык : Russian
Default : Да
Forced : Нет
Аудио #2
Идентификатор : 3
Формат : AC-3
Формат/Информация : Audio Coding 3
Расширение режима : CM (complete main)
Параметр Endianness формата : Big
Идентификатор кодека : A_AC3
Продолжительность : 1 ч. 33 м.
Вид битрейта : Постоянный
Битрейт : 384 Кбит/сек
Каналы : 6 каналов
Расположение каналов : Front: L C R, Side: L R, LFE
Частота : 48,0 КГц
Битовая глубина : 16 бит
Метод сжатия : С потерями
Размер потока : 258 Мбайт (2%)
Заголовок : AVO (Антон Алексеев)
Язык : Russian
Default : Нет
Forced : Нет
Аудио #3
Идентификатор : 4
Формат : AC-3
Формат/Информация : Audio Coding 3
Расширение режима : CM (complete main)
Параметр Endianness формата : Big
Идентификатор кодека : A_AC3
Продолжительность : 1 ч. 33 м.
Вид битрейта : Постоянный
Битрейт : 192 Кбит/сек
Каналы : 2 канала
Расположение каналов : Front: L R
Частота : 48,0 КГц
Битовая глубина : 16 бит
Метод сжатия : С потерями
Размер потока : 129 Мбайт (1%)
Заголовок : AVO (Алексей Михалёв)
Язык : Russian
Default : Нет
Forced : Нет
Аудио #4
Идентификатор : 5
Формат : DTS
Формат/Информация : Digital Theater Systems
Режим : 16
Параметр Endianness формата : Big
Идентификатор кодека : A_DTS
Продолжительность : 1 ч. 33 м.
Вид битрейта : Постоянный
Битрейт : 1509 Кбит/сек
Каналы : 6 каналов
Расположение каналов : Front: L C R, Side: L R, LFE
Частота : 48,0 КГц
Битовая глубина : 24 бит
Метод сжатия : С потерями
Размер потока : 1014 Мбайт (8%)
Заголовок : Original
Язык : English
Default : Нет
Forced : Нет
Аудио #5
Идентификатор : 6
Формат : AC-3
Формат/Информация : Audio Coding 3
Профиль формата : Dolby Digital
Расширение режима : CM (complete main)
Параметр Endianness формата : Big
Идентификатор кодека : A_AC3
Продолжительность : 1 ч. 33 м.
Вид битрейта : Постоянный
Битрейт : 192 Кбит/сек
Каналы : 2 канала
Расположение каналов : Front: L R
Частота : 48,0 КГц
Битовая глубина : 16 бит
Метод сжатия : С потерями
Размер потока : 129 Мбайт (1%)
Заголовок : Commentary
Язык : English
Default : Нет
Forced : Нет
Текст
Идентификатор : 7
Формат : UTF-8
Идентификатор кодека : S_TEXT/UTF8
Идентификатор кодека/Информация : UTF-8 Plain Text
Заголовок : английский
Язык : English
Default : Нет
Forced : Нет
Меню
00:00:00.000 : en:00:00:00.000
00:06:09.869 : en:00:06:09.869
00:10:36.678 : en:00:10:36.678
00:12:44.806 : en:00:12:44.806
00:14:05.053 : en:00:14:05.053
00:16:15.474 : en:00:16:15.474
00:20:59.425 : en:00:20:59.425
00:24:57.663 : en:00:24:57.663
00:29:22.761 : en:00:29:22.761
00:30:58.482 : en:00:30:58.482
00:33:12.782 : en:00:33:12.782
00:35:45.518 : en:00:35:45.518
00:38:59.754 : en:00:38:59.754
00:44:55.443 : en:00:44:55.443
00:52:34.234 : en:00:52:34.234
00:58:28.588 : en:00:58:28.588
01:02:44.928 : en:01:02:44.928
01:06:47.837 : en:01:06:47.837
01:10:49.620 : en:01:10:49.620
01:19:58.335 : en:01:19:58.335
01:27:28.034 : en:01:27:28.034
---[Information] [30.09.2013 4:00:18] avs [info]: 1920x1080p 1:1 @ 24000/1001 fps (cfr)
---[Information] [30.09.2013 4:00:18] x264 [info]: using SAR=1/1
---[Information] [30.09.2013 4:00:18] x264 [info]: using cpu capabilities: MMX2 SSE2Fast SSSE3 SSE4.2
---[Information] [30.09.2013 4:00:18] x264 [info]: profile High, level 4.1
---[Information] [30.09.2013 23:28:00] x264 [info]: frame I:909 Avg QP:18.21 size:191788
---[Information] [30.09.2013 23:28:02] x264 [info]: frame P:27830 Avg QP:19.52 size:135873
---[Information] [30.09.2013 23:28:02] x264 [info]: frame B:106358 Avg QP:21.72 size: 78572
---[Information] [30.09.2013 23:28:02] x264 [info]: consecutive B-frames: 1.2% 1.0% 2.1% 38.1% 15.9% 17.9% 13.4% 7.6% 2.7%
---[Information] [30.09.2013 23:28:02] x264 [info]: mb I I16..4: 7.3% 77.7% 15.0%
---[Information] [30.09.2013 23:28:02] x264 [info]: mb P I16..4: 1.6% 48.3% 2.7% P16..4: 22.8% 14.4% 5.4% 0.0% 0.0% skip: 4.9%
---[Information] [30.09.2013 23:28:02] x264 [info]: mb B I16..4: 0.6% 20.1% 0.6% B16..8: 30.7% 10.7% 2.7% direct:14.1% skip:20.5% L0:46.1% L1:33.9% BI:20.0%
---[Information] [30.09.2013 23:28:02] x264 [info]: 8x8 transform intra:93.0% inter:67.5%
---[Information] [30.09.2013 23:28:02] x264 [info]: coded y,uvDC,uvAC intra: 95.1% 94.5% 81.9% inter: 45.1% 43.1% 13.0%
---[Information] [30.09.2013 23:28:02] x264 [info]: i16 v,h,dc,p: 47% 14% 15% 24%
---[Information] [30.09.2013 23:28:02] x264 [info]: i8 v,h,dc,ddl,ddr,vr,hd,vl,hu: 14% 9% 30% 7% 7% 8% 7% 9% 10%
---[Information] [30.09.2013 23:28:02] x264 [info]: i4 v,h,dc,ddl,ddr,vr,hd,vl,hu: 20% 11% 10% 7% 11% 12% 11% 8% 10%
---[Information] [30.09.2013 23:28:02] x264 [info]: i8c dc,h,v,p: 64% 13% 13% 9%
---[Information] [30.09.2013 23:28:02] x264 [info]: Weighted P-Frames: Y:5.4% UV:3.2%
---[Information] [30.09.2013 23:28:02] x264 [info]: ref P L0: 49.1% 10.4% 28.9% 10.9% 0.7% 0.0%
---[Information] [30.09.2013 23:28:02] x264 [info]: ref B L0: 88.2% 9.7% 2.0%
---[Information] [30.09.2013 23:28:02] x264 [info]: ref B L1: 92.7% 7.3%
---[Information] [30.09.2013 23:28:02] x264 [info]: kb/s:17481.00
---[Information] [30.09.2013 23:28:02] encoded 135097 frames, 1.93 fps, 17481.00 kb/s
--[Information] [30.09.2013 23:28:05] Final statistics
---[Information] [30.09.2013 23:28:05] Constant Quality Mode: Quality 19 computed...
---[Information] [30.09.2013 23:28:05] Video Bitrate Obtained (approximate): 17482 kbit/s
--[Information] [30.09.2013 23:28:05] MediaInfo
---[Information] File: E:RipLavka.ugasov.1986.x264.BDRipLavka.ugasov.1986.x264.BDRip.1080p.mkv

Скриншоты


Яндекс.Метрика
Рейтинг@Mail.ru