Три богатыря: Ход конем (Константин Феоктистов) [2014 г., мультфильм, комедия, приключения, CamRip]

 

Создавать темы 09-Янв-2015 05:02

-Три богатыря: Ход конем-- Производство: Россия, Кинокомпания СТВ, Студия Мельница
Режиссер: Константин Феоктистов
Жанр: мультфильм, комедия, приключения
Год выпуска: 2014 г.
Продолжительность: 01:11:40
Мировая премьера: 1 января 2015
Российская премьера: 1 января 2015, «Наше Кино»
Перевод: Не требуется
Роли озвучивали: Дмитрий Нагиев, Наргиз Закирова, Гоша Куценко, Сергей Маковецкий, Дмитрий Быковский-Ромашов, Валерий Соловьев, Олег Куликович, Дмитрий Высоцкий-Описание: Придворный конь Гай Юлий Цезарь на свою беду подслушивает разговор бояр и узнает о заговоре против князя. Что же делать? Защитить-то князя некому! Богатыри далеко — ловят разбойника Потаню, Горыныч в отпуске, войско на учениях… Но если плохие парни собираются захватить мир, то кому-то же надо его спасти? Кто же он, настоящий герой, который придет на помощь? Конечно, конь Юлий! Настоящий стратег и «великий комбинатор». Он непременно всех спасет, а если не спасет, то хотя бы постарается. Главное, чтобы операция по спасению мира не обернулась полной катастрофой.-
Качество видео: CamRip
Контейнер: AVI
Видео кодек: XviD
Аудио кодек: AC3
Видео: 720x400, 1256 Кбит/сек, 29,970 кадров/сек
Аудио: 192 Кбит/сек, 2 канала, 48,0 КГц
Cубтитры: отсутствуют

Рецензия

Как князь Киев сдал…Очередной творение студии «MELNITSA» дарит нам очередной же мультфильм про богатырей славных. Признаться, как-то все эти «Богатыри» мимо меня прошли. Смотрел первые два («Алёша Попович» и «Добрыня Никитич»), потом уже про Ивана Царевича стал уже высматривать… Но вот пришла пора, правда, минуя «Шамаханскую царицу» и их же «На дальних берегах» просто подглядеть: что же там сейчас у них вышло. И не заботит меня даже хронология, и даже не знаю есть ли она. И вышло у них вот что:
Сюжет в фильмы стал для меня непривычным. Когда дерево, которое имело паразитическое выражение при себе: «Мать моя роща», — устроило из Киева игорную зону. Конечно Князь подсел и… проиграл всё с потрохами. Конь же Юлий подслушал заговор. А в княжестве как назло не осталось боевых дружин. И даже богатыри отправились на спецзадание.
Так вот это дерево и станет главным неприятелем по сюжету, и таким маняще интересным для зрителя!.. Потому что оно само как ходячее казино. Там у него и в однорукого бандита поиграть можно, и в карты… да во что угодно.
Кое где даже можно было эту историю сравнит с историей про Трою. А кроме того, мы видим жён богатырей. Не сказать, что сами древнерусские молодцы здесь с боку припёку, конечно, и с ними будет увязан сюжет. Но основа основ здесь Конь, Князь и дерево. Ну, конь — тот как всегда в своём репертуаре. Князь тоже понятен и прост. Дерево же сбросит свои чудо-кроны.
Фильм же в конце становится уж точно вполне смотрибельным. И интересно уже: как же вернут Киев. Как справятся с супостатом, который действует не с позиции силы, а с позиции хитрости…
В принципе, такой мульт уже сгодится. Его вот называют реабилитационной частью после выпуска богатырей «На дальних берегах», но я не могу это не подтвердить, не опровергнуть… Могу только пожелать приятного просмотра!..7 из 10

Media Info

Общее
Полное имя                               : D:\movies\pirat.ca\Tri.bogatyrja.hod.konem.2014.O.CAMRip.avi
Формат                                   : AVI
Формат/Информация                        : Audio Video Interleave
Размер файла                             : 748 Мбайт
Продолжительность                        : 1 ч. 11 м.
Общий поток                              : 1459 Кбит/сек
Название фильма                          : Tri.bogatyrja.hod.konem.2014.O.CAMRip
Режиссёр                                 : 3imeMachi9e&KiNOParK
Программа кодирования                    : VirtualDubMod 1.5.10.3 | www.virtualdub-fr.org || (build 2550/release)
Правообладатель                          : UNIONGANG&RUSTORRENTS
Видео
Идентификатор                            : 0
Формат                                   : MPEG-4 Visual
Профиль формата                          : Advanced [email protected]
Параметр BVOP формата                    : 2
Параметр QPel формата                    : Нет
Параметр GMC формата                     : Без точки перехода
Параметр матрицы формата                 : Выборочная
Идентификатор кодека                     : XVID
Идентификатор кодека/Подсказка           : XviD
Продолжительность                        : 1 ч. 11 м.
Битрейт                                  : 1256 Кбит/сек
Ширина                                   : 720 пикселей
Высота                                   : 400 пикселей
Соотношение сторон                       : 16:9
Частота кадров                           : 29,970 кадров/сек
Цветовое пространство                    : YUV
Субдискретизация насыщенности            : 4:2:0
Битовая глубина                          : 8 бит
Тип развёртки                            : Прогрессивная
Метод сжатия                             : С потерями
Бит/(Пиксели*Кадры)                      : 0.145
Размер потока                            : 644 Мбайт (86%)
Библиотека кодирования                   : XviD 1.2.1 (UTC 2008-12-04)
Аудио
Идентификатор                            : 1
Формат                                   : AC-3
Формат/Информация                        : Audio Coding 3
Расширение режима                        : CM (complete main)
Параметр Endianness формата              : Big
Идентификатор кодека                     : 2000
Продолжительность                        : 1 ч. 11 м.
Вид битрейта                             : Постоянный
Битрейт                                  : 192 Кбит/сек
Каналы                                   : 2 канала
Расположение каналов                     : Front: L R
Частота                                  : 48,0 КГц
Битовая глубина                          : 16 бит
Метод сжатия                             : С потерями
Размер потока                            : 98,4 Мбайт (13%)
Выравнивание                             : Разделение по промежуткам
Продолжительность промежутка             : 33  мс. (1,00 видеокадр)
Время предзагрузки промежутка            : 500  мс.

Скриншот c названием мультфильма

Скриншоты

-- --
Яндекс.Метрика
Рейтинг@Mail.ru