Вычислитель (Дмитрий Грачев) [2014 г., Фантастика, WEBRip]

 

Создавать темы 09-Янв-2015 04:52

-Вычислитель«Он знает, что будет»-- Производство: Россия, Art Pictures Studio, ВГТРК
Режиссер: Дмитрий Грачев
Жанр: Фантастика
Год выпуска: 2014 г.
Продолжительность: 01:19:41
Российская премьера: 18 декабря 2014, «Централ Партнершип»
В ролях: Евгений Миронов, Винни Джонс, Анна Чиповская, Иван Верховых, Владас Багдона, Алексей Колубков, Никита Панфилов, Линда Нигматулина, Пётр Сковцов, Ирене Мускара-Описание: Десять заключенных, приговоренных к пожизненному изгнанию с планеты XT-59, отправляются в опасный путь через Саргассово Болото. Группа сразу делится на две части: Эрвин и Кристи идут на поиск Счастливых Островов, Юст ведет остальных к Гнилой Мели. Однако долгое время их маршруты практически совпадают. В первый же вечер Эрвин понимает, что его должны убить — в прошлой жизни он занимал слишком высокий пост, и теперь он опасен для тех, кто пришел к власти. Выбрав в попутчицы Кристи, он сразу старается уйти подальше от остальных членов группы, чтобы обезопасить себя. На пути к Счастливым островам герои преодолевают массу препятствий. Цена этому — свобода и счастье.-Сэмпл КиноПоиск
Качество видео: WEBRip
Контейнер: AVI
Видео кодек: XviD
Аудио кодек: AC3
Видео: 720x304 (2.37:1), 25 fps, XviD build 50 ~1095 kbps avg, 0.20 bit/pixel
Аудио: 48 kHz, AC3 Dolby Digital, 2/0 (L,R) ch, ~128 kbps
Cубтитры: отсутствуют

Media Info

Общее
Полное имя : E:\Фильмы\Vichisl1tel.2014.O.WEBRip.700Mb.avi
Формат : AVI
Формат/Информация : Audio Video Interleave
Размер файла : 703 Мбайт
Продолжительность : 1 ч. 19 м.
Общий поток : 1234 Кбит/сек
Программа кодирования : VirtualDubMod 1.5.10.2 (build 2540/release)
Библиотека кодирования : VirtualDubMod build 2540/release
Видео
Идентификатор : 0
Формат : MPEG-4 Visual
Профиль формата : Advanced [email protected]
Параметр BVOP формата : 2
Параметр QPel формата : Нет
Параметр GMC формата : Без точки перехода
Параметр матрицы формата : Default (MPEG)
Идентификатор кодека : XVID
Идентификатор кодека/Подсказка : XviD
Продолжительность : 1 ч. 19 м.
Продолжительность оригинала : 57 м.
Битрейт : 1073 Кбит/сек
Ширина : 720 пикселей
Высота : 304 пикселя
Соотношение сторон : 2,35:1
Частота кадров : 25,000 кадров/сек
Цветовое пространство : YUV
Субдискретизация насыщенности : 4:2:0
Битовая глубина : 8 бит
Тип развёртки : Прогрессивная
Метод сжатия : С потерями
Бит/(Пиксели*Кадры) : 0.196
Размер потока : 444 Мбайт (63%)
Библиотека кодирования : XviD 1.2.1 (UTC 2008-12-04)
Аудио
Идентификатор : 1
Формат : AC-3
Формат/Информация : Audio Coding 3
Расширение режима : CM (complete main)
Параметр Endianness формата : Big
Идентификатор кодека : 2000
Продолжительность : 1 ч. 19 м.
Продолжительность оригинала : 57 м.
Вид битрейта : Постоянный
Битрейт : 128 Кбит/сек
Каналы : 2 канала
Расположение каналов : Front: L R
Частота : 48,0 КГц
Битовая глубина : 16 бит
Метод сжатия : С потерями
Размер потока : 53,0 Мбайт (8%)
Выравнивание : Разделение по промежуткам
Продолжительность промежутка : 40 мс. (1,00 видеокадр)
Время предзагрузки промежутка : 500 мс.
Скриншоты
Яндекс.Метрика
Рейтинг@Mail.ru