Рожденный вором / Zong heng si hai (Джон Ву / John Woo) [1991 г., боевик, триллер, комедия, криминал, BDRip, 720p] AVO (Живов, Визгунов) + MVO + original (Chi)

 

Создавать темы 09-Янв-2015 04:09

Рожденный вором / Zong heng si hai
Год выпуска: 1991
Производство: Гонконг
Жанр: боевик, триллер, комедия, криминал
Продолжительность: 01:48:19
Перевод: Авторский (одноголосый, закадровый) Юрий Живов
Перевод: Авторский (одноголосый, закадровый) Сергей Визгунов
Перевод: Профессиональный (многоголосый, закадровый) MVO
Оригинальный аудиопоток: китайский
Субтитры: отсутствуют
Режиссер: Джон Ву / John Woo
В ролях: Чоу Юнь Фат, Лесли Чун, Чери Чунг, Чу Конг, Кент Цан, Фанг Ву, Лейла Тонг, Деклан Вонг, Джон Ву, Дэвид Ву
Описание: Джим, Джо и Чери вместе росли и вместе учились воровать. Теперь они уже не какие-то мелкие карманники, а профессионалы самого высокого класса, виртуозы воровского искусства, специализирующиеся на краже картин. Красавица Чери уговаривает друзей завязать и начать спокойную жизнь. Они обещают ей, что идут на последнее дело, чтобы хорошенько заработать, но удачливые до этого момента преступники попадают в засаду…
, КиноПоиск
Качество видео: BDRip
Контейнер: MKV
Стандарт разрешения: 720p
Видео кодек: H.264
Аудио кодек: AC3
Видео: 1280x 676, 23.976 fps, 5247 Kbps, 0.253 Bt/Px
Аудио : AC-3, 448 Kbps, 6 ch, 48.0 KHz Rus Живов
Аудио : AC-3, 448 Kbps, 6 ch, 48.0 KHz Rus Визгунов
Аудио : AC-3, 448 Kbps, 6 ch, 48.0 KHz Rus MVO
Аудио : AC-3, 448 Kbps, 6 ch, 48.0 KHz Eng Original

Media Info

G:\загрузки\Once_a_thief_[Pirat.ca].torrent.mkv
General
Unique ID : 202123890644522689839177744887848768787 (0x980FA53573397553AF00C8F0D43A1513)
Complete name : G:\загрузки\Once_a_thief_[Pirat.ca].torrent.mkv
Format : Matroska
Format version : Version 1
File size : 5.43 GiB
Duration : 1h 48mn
Overall bit rate : 7 182 Kbps
Encoded date : UTC 2014-12-13 14:11:16
Writing application : mkvmerge v2.5.3 ('Boogie') built on Mar 7 2009 15:00:41
Writing library : libebml v0.7.7 + libmatroska v0.8.1
Video #1
ID : 1
Format : AVC
Format/Info : Advanced Video Codec
Format profile : [email protected]
Format settings, CABAC : Yes
Format settings, ReFrames : 9 frames
Codec ID : V_MPEG4/ISO/AVC
Duration : 1h 48mn
Bit rate : 5 247 Kbps
Width : 1 280 pixels
Height : 676 pixels
Display aspect ratio : 1.893
Frame rate mode : Constant
Frame rate : 23.976 fps
Color space : YUV
Chroma subsampling : 4:2:0
Bit depth : 8 bits
Scan type : Progressive
Bits/(Pixel*Frame) : 0.253
Stream size : 3.97 GiB (73%)
Writing library : x264 core 130 r2273 b3065e6
Encoding settings : cabac=1 / ref=9 / deblock=1:-3:-3 / analyse=0x3:0x133 / me=umh / subme=11 / psy=1 / psy_rd=1.00:0.10 / mixed_ref=1 / me_range=32 / chroma_me=1 / trellis=2 / 8x8dct=1 / cqm=0 / deadzone=21,11 / fast_pskip=0 / chroma_qp_offset=-3 / threads=6 / lookahead_threads=1 / sliced_threads=0 / nr=0 / decimate=1 / interlaced=0 / bluray_compat=0 / constrained_intra=0 / bframes=8 / b_pyramid=2 / b_adapt=2 / b_bias=0 / direct=1 / weightb=1 / open_gop=0 / weightp=2 / keyint=250 / keyint_min=23 / scenecut=40 / intra_refresh=0 / rc=crf / mbtree=0 / crf=18.0 / qcomp=0.60 / qpmin=0 / qpmax=51 / qpstep=4 / ip_ratio=1.40 / pb_ratio=1.30 / aq=1:1.00
Language : Chinese
Default : Yes
Forced : No
Audio #2
ID : 2
Format : AC-3
Format/Info : Audio Coding 3
Mode extension : CM (complete main)
Format settings, Endianness : Big
Codec ID : A_AC3
Duration : 1h 48mn
Bit rate mode : Constant
Bit rate : 448 Kbps
Channel(s) : 6 channels
Channel positions : Front: L C R, Side: L R, LFE
Sampling rate : 48.0 KHz
Bit depth : 16 bits
Compression mode : Lossy
Stream size : 347 MiB (6%)
Title : AVO Живов
Language : Russian
Default : Yes
Forced : No
Audio #3
ID : 3
Format : AC-3
Format/Info : Audio Coding 3
Mode extension : CM (complete main)
Format settings, Endianness : Big
Codec ID : A_AC3
Duration : 1h 48mn
Bit rate mode : Constant
Bit rate : 448 Kbps
Channel(s) : 6 channels
Channel positions : Front: L C R, Side: L R, LFE
Sampling rate : 48.0 KHz
Bit depth : 16 bits
Compression mode : Lossy
Stream size : 347 MiB (6%)
Title : AVO Визгунов
Language : Russian
Default : No
Forced : No
Audio #4
ID : 4
Format : AC-3
Format/Info : Audio Coding 3
Mode extension : CM (complete main)
Format settings, Endianness : Big
Codec ID : A_AC3
Duration : 1h 48mn
Bit rate mode : Constant
Bit rate : 448 Kbps
Channel(s) : 6 channels
Channel positions : Front: L C R, Side: L R, LFE
Sampling rate : 48.0 KHz
Bit depth : 16 bits
Compression mode : Lossy
Stream size : 347 MiB (6%)
Title : MVO
Language : Russian
Default : No
Forced : No
Audio #5
ID : 5
Format : AC-3
Format/Info : Audio Coding 3
Mode extension : CM (complete main)
Format settings, Endianness : Big
Codec ID : A_AC3
Duration : 1h 48mn
Bit rate mode : Constant
Bit rate : 448 Kbps
Channel(s) : 6 channels
Channel positions : Front: L C R, Side: L R, LFE
Sampling rate : 48.0 KHz
Bit depth : 16 bits
Compression mode : Lossy
Stream size : 347 MiB (6%)
Language : Chinese
Default : No
Forced : No

log x.264

x264 [info]: frame I:1542  Avg QP:16.96  size: 91579
x264 [info]: frame P:33179 Avg QP:17.97 size: 52929
x264 [info]: frame B:120688 Avg QP:20.17 size: 20553
x264 [info]: consecutive B-frames: 1.8% 2.0% 7.5% 20.7% 17.3% 47.6% 2.6% 0.3% 0.2%
x264 [info]: mb I I16..4: 1.9% 88.8% 9.2%
x264 [info]: mb P I16..4: 0.9% 31.8% 1.9% P16..4: 23.8% 29.9% 10.3% 0.8% 0.0% skip: 0.5%
x264 [info]: mb B I16..4: 0.2% 3.4% 0.2% B16..8: 35.3% 27.1% 4.6% direct: 7.9% skip:21.5% L0:41.6% L1:43.0% BI:15.4%
x264 [info]: 8x8 transform intra:91.2% inter:61.7%
x264 [info]: coded y,uvDC,uvAC intra: 94.6% 91.1% 72.2% inter: 38.9% 30.3% 5.0%
x264 [info]: i16 v,h,dc,p: 63% 17% 3% 17%
x264 [info]: i8 v,h,dc,ddl,ddr,vr,hd,vl,hu: 9% 7% 8% 10% 14% 13% 12% 13% 13%
x264 [info]: i4 v,h,dc,ddl,ddr,vr,hd,vl,hu: 34% 12% 3% 6% 11% 11% 9% 8% 8%
x264 [info]: i8c dc,h,v,p: 43% 23% 18% 16%
x264 [info]: Weighted P-Frames: Y:16.3% UV:8.7%
x264 [info]: ref P L0: 41.6% 11.1% 21.0% 7.3% 6.3% 4.0% 3.9% 2.1% 2.2% 0.4% 0.0%
x264 [info]: ref B L0: 81.4% 9.2% 3.7% 2.1% 1.4% 1.2% 0.7% 0.4%
x264 [info]: ref B L1: 96.7% 3.3%
x264 [info]: kb/s:5403.14
x264 [total]: encoded 155409 frames, 3.62 fps, 5403.15 kb/s

Скриншоты

Яндекс.Метрика
Рейтинг@Mail.ru