[ Сегодня на трекере фрилич! Идет свободное скачивание без начисления Download ]

Ночной дозор [Расширенная версия] (Тимур Бекмамбетов) [2004 г., фантастика, триллер, боевик, фэнтези, экранизация, DVDRip]

 

Создавать темы 09-Янв-2015 04:07

Ночной дозор-Расширенная версия- Год выпуска: 2004 г.
Производство: Россия , Fox Searchlight Pictures
Жанр: фантастика, триллер, боевик, фэнтези, экранизация
Продолжительность: 01:57:24
Российская премьера: 27 июня 2004, «Гемини»
Мировая премьера: 8 июля 2004
Режиссёр: Тимур Бекмамбетов
В ролях: Константин Хабенский, Владимир Меньшов, Валерий Золотухин, Мария Порошина, Галина Тюнина, Гоша Куценко, Алексей Чадов, Жанна Фриске, Илья Лагутенко, Виктор Вержбицкий
Описание: Все знают, что на ночных улицах опасно. Но в данном случае речь идёт не о преступниках и маньяках. Когда наступает ночь и силы Зла властвуют безраздельно, можно столкнуться с теми, с кем не встретишься днём — тёмными магами, вампирами и прочей нечистью. Их сила столь велика, что справиться с ними обычным оружием невозможно.
Но по следу «ночных охотников» идут те, кто веками сражается с порождениями сумрака и побеждает их, неукоснительно соблюдая при этом Договор, заключённый тысячелетия тому назад между Светлыми и Тёмными… Имя им — Ночной Дозор. Их предназначение — сохранение равновесия между Добром и Злом, нарушение которого вызывает разрушения, войны, революции, вселенские катастрофы.
Каждый плохой человеческий поступок — измена, предательство, убийство, равно, как и хороший, ложится на чашу весов, перевешивая их то в одну, то в другую сторону. Именно поэтому и силы Света, и силы Тьмы вынуждены существовать в двух мирах: реальном и потустороннем, пытаясь либо подтолкнуть человека к греху, либо отвратить от него…
По мотивам одноимённого романа Сергея Лукьяненко.
-*6.5 *6.0Качество видео: DVDRip
Контейнер: AVI
Видео кодек: XviD
Аудио кодек: AC3
Видео: 720x384 (1.85:1), 2196 kbps, 25 fps, 0.318 bit/pixel
Аудио: 448 kbps, 6 ch, 48.0 kHz
Cубтитры: отсутствуют

Доп. информация о версии

Главные отличия от международной:
- Пролог и эпилог на русском языке.
- Оригинальные диалоги Гесера и Ольги относительно экспозиции Иных.
- Егор смотрит мультик про домовёнка Кузю, а не серию "Баффи".
- Есть две большие сюжетные линии: линия Игната (Гоша Куценко) и линия семейной пары в самолёте, которые урезали из международной версии.
- В титрах песня "Ночной дозор" группы УмаТурман.

Награды

Media Info

Общее
Полное имя : Ночной дозор.(расширенная версия).2004.[DVDRip].avi
Формат : AVI
Формат/Информация : Audio Video Interleave
Профиль формата : OpenDML
Размер файла : 2,18 Гбайт
Продолжительность : 1 ч. 57 м.
Общий поток : 2656 Кбит/сек
Программа кодирования : VirtualDubMod 1.5.10.2 (build 2540/release)
Библиотека кодирования : VirtualDubMod build 2540/release
Видео
Идентификатор : 0
Формат : MPEG-4 Visual
Профиль формата : Advanced [email protected]
Параметр BVOP формата : 1
Параметр QPel формата : Нет
Параметр GMC формата : Без точки перехода
Параметр матрицы формата : Default (MPEG)
Идентификатор кодека : XVID
Идентификатор кодека/Подсказка : XviD
Продолжительность : 1 ч. 57 м.
Битрейт : 2196 Кбит/сек
Ширина : 720 пикселей
Высота : 384 пикселя
Соотношение сторон : 1,85:1
Частота кадров : 25,000 кадров/сек
Цветовое пространство : YUV
Субдискретизация насыщенности : 4:2:0
Битовая глубина : 8 бит
Тип развёртки : Прогрессивная
Метод сжатия : С потерями
Бит/(Пиксели*Кадры) : 0.318
Размер потока : 1,80 Гбайт (83%)
Библиотека кодирования : XviD 1.2.1 (UTC 2008-12-04)
Аудио
Идентификатор : 1
Формат : AC-3
Формат/Информация : Audio Coding 3
Расширение режима : CM (complete main)
Параметр Endianness формата : Big
Идентификатор кодека : 2000
Продолжительность : 1 ч. 57 м.
Вид битрейта : Постоянный
Битрейт : 448 Кбит/сек
Каналы : 6 каналов
Расположение каналов : Front: L C R, Side: L R, LFE
Частота : 48,0 КГц
Битовая глубина : 16 бит
Метод сжатия : С потерями
Размер потока : 376 Мбайт (17%)
Выравнивание : Разделение по промежуткам
Продолжительность промежутка : 40 мс. (1,00 видеокадр)
Время предзагрузки промежутка : 500 мс.

Ещё скриншоты

Яндекс.Метрика
Рейтинг@Mail.ru