[ Сегодня на трекере фрилич! Идет свободное скачивание без начисления Download ]

Преследуемый / The Hunted (Дж. Ф. Лоутон / J.F. Lawton) [1995 г., Боевик, триллер, драма, DVDRip-AVC] AVO (Андрей Гаврилов, Юрий Живов) + original (Eng)

 

Создавать темы 09-Янв-2015 04:06

Преследуемый / The Hunted
Год выпуска: 1995
Производство: США
Жанр: Боевик, триллер, драма
Продолжительность: 01:45:34
Перевод: Авторский (одноголосый, закадровый) Андрей Гаврилов
Перевод: Авторский (одноголосый, закадровый) Юрий Живов
Оригинальный аудиопоток: английский
Субтитры: отсутствуют
Режиссер: Дж. Ф. Лоутон / J.F. Lawton
В ролях: Кристофер Ламберт, Джон Лоун, Джоан Чен, Йошио Харада, Йоко Симада, Мари Натсуки, Так Кубота, Масуми Окада, Татсуя Ириэ, Майкл Уоррен
Описание: Приехавший по делам фирмы в Японию нью-йоркский бизнесмен Поль Расин проводит романтическую ночь с очаровательной незнакомкой. Став случайным свидетелем ее убийства, он попадает в водоворот кровавых и загадочных событий, связанных с давней враждой между двумя древними и могущественными кланами ниндзя. И, став объектом преследования, Поль принимает бой…
, КиноПоиск
Качество видео: DVDRip-AVC
Контейнер: MKV
Видео кодек: H.264
Аудио кодек: AC3
Видео: 696x372, 25.00fps, 1345 Kbps, 0.208 bt/px
Аудио : AC-3, 192 Kbps, 2 ch, 48.0 KHz Rus Гаврилов
Аудио : AC-3, 448 Kbps, 6 ch, 48.0 KHz Rus Живов
Аудио : AC-3, 384 Kbps, 6 ch, 48.0 KHz Eng Original

Media Info

H:\КИНОФИЛЬМЫ\The Hunted.mkv
General
Unique ID : 245797389544679571293615658543037887202 (0xB8EADAF3798F353C992A2F3D440932E2)
Complete name : H:\КИНОФИЛЬМЫ\The Hunted.mkv
Format : Matroska
Format version : Version 1
File size : 1.78 GiB
Duration : 1h 45mn
Overall bit rate : 2 417 Kbps
Encoded date : UTC 2015-01-07 07:36:39
Writing application : mkvmerge v2.5.3 ('Boogie') built on Mar 7 2009 15:00:41
Writing library : libebml v0.7.7 + libmatroska v0.8.1
Video #1
ID : 1
Format : AVC
Format/Info : Advanced Video Codec
Format profile : [email protected]
Format settings, CABAC : Yes
Format settings, ReFrames : 9 frames
Codec ID : V_MPEG4/ISO/AVC
Duration : 1h 45mn
Bit rate : 1 345 Kbps
Width : 696 pixels
Height : 372 pixels
Display aspect ratio : 1.85:1
Frame rate mode : Constant
Frame rate : 25.000 fps
Color space : YUV
Chroma subsampling : 4:2:0
Bit depth : 8 bits
Scan type : Progressive
Bits/(Pixel*Frame) : 0.208
Stream size : 1 016 MiB (56%)
Writing library : x264 core 130 r2273 b3065e6
Encoding settings : cabac=1 / ref=9 / deblock=1:-3:-3 / analyse=0x3:0x133 / me=umh / subme=11 / psy=1 / psy_rd=1.00:0.05 / mixed_ref=1 / me_range=24 / chroma_me=1 / trellis=2 / 8x8dct=1 / cqm=0 / deadzone=21,11 / fast_pskip=1 / chroma_qp_offset=-3 / threads=6 / lookahead_threads=1 / sliced_threads=0 / nr=0 / decimate=1 / interlaced=0 / bluray_compat=0 / constrained_intra=0 / bframes=8 / b_pyramid=2 / b_adapt=2 / b_bias=0 / direct=1 / weightb=1 / open_gop=0 / weightp=2 / keyint=250 / keyint_min=25 / scenecut=40 / intra_refresh=0 / rc_lookahead=50 / rc=crf / mbtree=1 / crf=18.0 / qcomp=0.60 / qpmin=0 / qpmax=51 / qpstep=4 / ip_ratio=1.40 / aq=1:1.00
Language : English
Default : Yes
Forced : No
Audio #2
ID : 2
Format : AC-3
Format/Info : Audio Coding 3
Mode extension : CM (complete main)
Format settings, Endianness : Big
Codec ID : A_AC3
Duration : 1h 45mn
Bit rate mode : Constant
Bit rate : 192 Kbps
Channel(s) : 2 channels
Channel positions : Front: L R
Sampling rate : 48.0 KHz
Bit depth : 16 bits
Compression mode : Lossy
Stream size : 145 MiB (8%)
Title : AVO Гаврилов
Language : Russian
Default : Yes
Forced : No
Audio #3
ID : 3
Format : AC-3
Format/Info : Audio Coding 3
Mode extension : CM (complete main)
Format settings, Endianness : Big
Codec ID : A_AC3
Duration : 1h 45mn
Bit rate mode : Constant
Bit rate : 448 Kbps
Channel(s) : 6 channels
Channel positions : Front: L C R, Side: L R, LFE
Sampling rate : 48.0 KHz
Bit depth : 16 bits
Compression mode : Lossy
Stream size : 338 MiB (19%)
Title : AVO Живов
Language : Russian
Default : No
Forced : No
Audio #4
ID : 4
Format : AC-3
Format/Info : Audio Coding 3
Mode extension : CM (complete main)
Format settings, Endianness : Big
Codec ID : A_AC3
Duration : 1h 45mn
Bit rate mode : Constant
Bit rate : 384 Kbps
Channel(s) : 6 channels
Channel positions : Front: L C R, Side: L R, LFE
Sampling rate : 48.0 KHz
Bit depth : 16 bits
Compression mode : Lossy
Stream size : 290 MiB (16%)
Language : English
Default : No
Forced : No

Скриншоты

Яндекс.Метрика
Рейтинг@Mail.ru