Моя мачеха – инопланетянка / My Stepmother Is an Alien (Ричард Бенджамин / Richard Benjamin) [1988 г., фантастика, комедия,WEB DL-720p] AVO (Горчаков, Володарский) + original (Eng)

 

Создавать темы 09-Янв-2015 03:30

Моя мачеха – инопланетянка / My Stepmother Is an Alien
Год выпуска: 1988
Производство: США
Жанр: фантастика, комедия,
Продолжительность: 01:48:02
Перевод: Авторский (одноголосый, закадровый) Василий Горчаков
Перевод: Авторский (одноголосый, закадровый) Леонид Володарский
Оригинальный аудиопоток: английский
Субтитры: отсутствуют
Режиссер: Ричард Бенджамин / Richard Benjamin
В ролях: Дэн Эйкройд, Ким Бейсингер, Джон Ловиц, Элисон Хэннигэн, Джозеф Маэр, Сет Грин, Энн Прентисс, Уэсли Манн, Тони Джей, Питер Бромилов
Описание: Селеста — сексуальная инопланетянка с секретным заданием — совратить ничего не подозревающего физика Стива Миллса и добраться до его исследований, в которых содержится ключ к спасению ее планеты.
Разодетая по последней моде и закусывающая на завтрак батарейками, Селеста производит неизгладимое впечатление на земных мужчин. Счастливый муж вот-вот испытает близкие контакты космически невообразимой степени!
, КиноПоиск
Качество видео: WEB-DL
Контейнер: MKV
Стандарт разрешения: 720p
Видео кодек: H.264
Аудио кодек: AC3
Видео: 1280x718, 4047 Kbps, 23.976 fps, 0.184 bt/px
Аудио : AC-3, 192 Kbps, 2 ch, 48.0 KHz Rus Горчаков
Аудио : AC-3, 192 Kbps, 2 ch, 48.0 KHz Rus Володарский
Аудио : AC-3, 192 Kbps, 2 ch, 48.0 KHz Eng Original

Доп. информация

WEB-DL найден в сети, дороги из коллекции!

Media Info

G:\загрузки\My_Stepmother_an_Alien_[Pirat.ca].torrent.mkv
General
Unique ID : 244302742778275243480361442147479202712 (0xB7CAFF2D0E867958B6AD0FC287BA2B98)
Complete name : G:\загрузки\My_Stepmother_an_Alien_[Pirat.ca].torrent.mkv
Format : Matroska
Format version : Version 1
File size : 3.56 GiB
Duration : 1h 48mn
Overall bit rate : 4 717 Kbps
Movie name : My Stepmother Is an Alien (1988) - Release for HDCLUB
Encoded date : UTC 2015-01-08 16:33:31
Writing application : mkvmerge v2.5.3 ('Boogie') built on Mar 7 2009 15:00:41
Writing library : libebml v0.7.7 + libmatroska v0.8.1
Video #1
ID : 1
Format : AVC
Format/Info : Advanced Video Codec
Format profile : [email protected]
Format settings, CABAC : No
Format settings, ReFrames : 2 frames
Codec ID : V_MPEG4/ISO/AVC
Duration : 1h 48mn
Bit rate : 4 047 Kbps
Width : 1 280 pixels
Height : 718 pixels
Display aspect ratio : 16:9
Frame rate mode : Constant
Frame rate : 23.976 fps
Color space : YUV
Chroma subsampling : 4:2:0
Bit depth : 8 bits
Scan type : Progressive
Bits/(Pixel*Frame) : 0.184
Stream size : 3.05 GiB (86%)
Language : English
Default : Yes
Forced : No
Color primaries : BT.709
Transfer characteristics : BT.709
Matrix coefficients : BT.709
Audio #2
ID : 2
Format : AC-3
Format/Info : Audio Coding 3
Mode extension : CM (complete main)
Format settings, Endianness : Big
Codec ID : A_AC3
Duration : 1h 48mn
Bit rate mode : Constant
Bit rate : 192 Kbps
Channel(s) : 2 channels
Channel positions : Front: L R
Sampling rate : 48.0 KHz
Bit depth : 16 bits
Compression mode : Lossy
Delay relative to video : 1s 400ms
Stream size : 148 MiB (4%)
Title : AVO Горчаков
Language : Russian
Default : Yes
Forced : No
Audio #3
ID : 3
Format : AC-3
Format/Info : Audio Coding 3
Mode extension : CM (complete main)
Format settings, Endianness : Big
Codec ID : A_AC3
Duration : 1h 48mn
Bit rate mode : Constant
Bit rate : 192 Kbps
Channel(s) : 2 channels
Channel positions : Front: L R
Sampling rate : 48.0 KHz
Bit depth : 16 bits
Compression mode : Lossy
Delay relative to video : 1s 400ms
Stream size : 148 MiB (4%)
Title : AVO Володарский
Language : Russian
Default : No
Forced : No
Audio #4
ID : 4
Format : AC-3
Format/Info : Audio Coding 3
Mode extension : CM (complete main)
Format settings, Endianness : Big
Codec ID : A_AC3
Duration : 1h 48mn
Bit rate mode : Constant
Bit rate : 192 Kbps
Channel(s) : 2 channels
Channel positions : Front: L R
Sampling rate : 48.0 KHz
Bit depth : 16 bits
Compression mode : Lossy
Stream size : 148 MiB (4%)
Language : English
Default : No
Forced : No

Скриншоты

Яндекс.Метрика
Рейтинг@Mail.ru