Город героев / Big Hero 6 (Дон Холл / Don Hall, Крис Уильямс / Chris Williams) [2014 г., мультфильм, фантастика, комедия, семейный, боевик, DVDScr] Dub (Звук с CAMRip)

 

Создавать темы 09-Янв-2015 03:30

-Город героев / Big Hero 6- Производство: США
Год выпуска: 2014 г.
Жанр: мультфильм, фантастика, комедия, семейный, боевик
Продолжительность: 01:41:51
Мировая премьера: 23 октября 2014
Российская премьера: 25 октября 2014, «WDSSPR
Дата выхода DVD: 3 марта 2015, «Уолт Дисней Компани СНГ»
Дата выхода Blu-Ray: 3 марта 2015, «Уолт Дисней Компани СНГ»
Перевод: Профессиональный (полное дублирование) [Звук с CAMRip]-Режиссер: Дон Холл / Don Hall, Крис Уильямс / Chris Williams
В ролях: Даниил Рагин, Максим Сергеев, Аделина Червякова, Валерий Смекалов, Юлия Рудина-Описание: Юный Хиро Хамада — прирожденный изобретатель и гений конструирования роботов. Вместе со старшим братом Тадаши они воплощают в жизнь самые передовые идеи в Техническом университете города будущего Сан-Франсокио. После серии загадочных событий друзья оказываются в центре коварного заговора. Отчаявшись, Хиро решает использовать веселого и добродушного экспериментального робота Бэймакса, перепрограммировав его в неуязвимую боевую машину.- -Качество видео: DVDScr
Контейнер: AVI
Видео кодек: XviD
Аудио кодек: MP3
Видео: 720x304 (2.37:1), 23.976 fps, XviD build 50 ~1783 kbps avg, 0.34 bit/pixel
Аудио: 44.100 kHz, MPEG Layer 3, 2 ch, ~128.00 kbps avg
Cубтитры: отсутствуют

Media Info

General
Complete name : D:\Gorod.Geroev.2014.Dt.DVDScr.1400MB.avi
Format : AVI
Format/Info : Audio Video Interleave
File size : 1.37 GiB
Duration : 1h 41mn
Overall bit rate : 1 921 Kbps
Writing application : VirtualDubMod 1.5.10.3 | www.virtualdub-fr.org || (build 2550/release)
Writing library : VirtualDubMod build 2550/release
Video
ID : 0
Format : MPEG-4 Visual
Format profile : Advanced [email protected]
Format settings, BVOP : 2
Format settings, QPel : No
Format settings, GMC : No warppoints
Format settings, Matrix : Default (MPEG)
Codec ID : XVID
Codec ID/Hint : XviD
Duration : 1h 41mn
Bit rate : 1 784 Kbps
Width : 720 pixels
Height : 304 pixels
Display aspect ratio : 2.35:1
Frame rate : 23.976 fps
Color space : YUV
Chroma subsampling : 4:2:0
Bit depth : 8 bits
Scan type : Progressive
Compression mode : Lossy
Bits/(Pixel*Frame) : 0.340
Stream size : 1.27 GiB (93%)
Writing library : XviD 1.2.1 (UTC 2008-12-04)
Audio
ID : 1
Format : MPEG Audio
Format version : Version 1
Format profile : Layer 3
Codec ID : 55
Codec ID/Hint : MP3
Duration : 1h 41mn
Bit rate mode : Constant
Bit rate : 128 Kbps
Channel(s) : 2 channels
Sampling rate : 44.1 KHz
Compression mode : Lossy
Stream size : 93.3 MiB (7%)
Alignment : Split accross interleaves
Interleave, duration : 42 ms (1.00 video frame)
Interleave, preload duration : 500 ms

Скриншоты

Яндекс.Метрика
Рейтинг@Mail.ru