Геракл / Hercules (2014) BDRip 720p | 60fps

 

Создавать темы 08-Янв-2015 13:02

Геракл / Hercules (2014) BDRip 720p | 60fps«Множество врагов. Двенадцать подвигов. Один герой»- Год выпуска: 2014
Производство: США / Paramount Pictures, Metro-Goldwyn-Mayer (MGM)
Жанр: Боевик, приключения-Режиссер: Бретт Рэтнер
Продюсер: Бо Флинн, Бэрри Ливайн, Бретт Рэтнер
Актеры: Дуэйн Джонсон, Аксель Хенни, Иэн МакШейн, Джон Хёрт, Руфус Сьюэлл, Ингрид Болсай Бердал, Рис Ричи, Джозеф Файнс, Тобиас Зантельман, Питер Муллан, Ребекка Фергюсон, Исаак Эндрюс, Джо Андерсон, Стивен Пикок, Николас Мосс, Роберт Уайтлок, Ирина Шейк, Кристофер Фэйрбэнк, Иэн Уайт-Описание фильма:
Более тысячи лет назад измученная душа скиталась по Земле, полубог, получеловек — Геракл — могучий сын царя богов Зевса, совершив все 12 подвигов, потерял семью и теперь находит утешение только в кровавых битвах.
За эти годы он собирает вокруг себя шестерых таких же потерянных воинов, единственным смыслом жизни для которых стали сражения и присутствие смертельной опасности. Эти мужчины и женщина никогда не задают вопрос, где, почему или с кем они идут сражаться; только, сколько им заплатят. Зная это, фракийский царь Котис нанимает этих воинов, чтобы они обучили его солдат и сделали из них самую сильную и великую армию всех времен.-Перевод: Дублированный (Лицензия)
Субтитры: Вшитые,не отключаемые (надписи), отключаемые
Язык субтитров: Русский (Forsed, Full), Английский (Full)-Дата мировой премьеры: 23 июля 2014
Дата российской премьеры: 24 июля 2014, «Централ Партнершип»
Дата выхода DVD релиза: 1 декабря 2014, «Новый Диск»
Дата выхода Blu-Ray релиза: 1 декабря 2014, «Новый Диск»-Продолжительность: 01:38:04
Качество видео: BDRip 720p-Видеокодек: MPEG-4 AVC/H.264
Битрейт видео: ~ 9914 Кбит/сек
Размер кадра: 1280 x 544
Аудио: AC3 5.1, 48.0 KHz, 640 Кбит/сек - Русский-

MediaInfo

Общее
Уникальный идентификатор                 : 202264556834913049984834790333625521703 (0x982ABC9661F60EA687BF0A67B7ADD627)
Полное имя                               : D:\Торренты\Hercules 60fps.mkv
Формат                                   : Matroska
Версия формата                           : Version 2
Размер файла                             : 7,38 Гбайт
Продолжительность                        : 1 ч. 38 м.
Общий поток                              : 10,8 Мбит/сек
Название фильма                          : Hercules (2014) [Theatrical Cut] Blu-ray 1080p AVC DD5.1
Дата кодирования                         : UTC 2014-12-05 17:31:51
Программа кодирования                    : mkvmerge v6.9.1 ('Blue Panther') 64bit built on Apr 18 2014 18:23:38
Библиотека кодирования                   : libebml v1.3.0 + libmatroska v1.4.1
Видео
Идентификатор                            : 1
Формат                                   : AVC
Формат/Информация                        : Advanced Video Codec
Профиль формата                          : [email protected]
Параметр CABAC формата                   : Да
Параметр ReFrames формата                : 6 кадров
Идентификатор кодека                     : V_MPEG4/ISO/AVC
Продолжительность                        : 1 ч. 38 м.
Битрейт                                  : 9914 Кбит/сек
Ширина                                   : 1280 пикселей
Высота                                   : 544 пикселя
Соотношение сторон                       : 2,35:1
Режим частоты кадров                     : Постоянный
Частота кадров                           : 59,880 кадров/сек
Частота кадров в оригинале               : 59,940 кадров/сек
Цветовое пространство                    : YUV
Субдискретизация насыщенности            : 4:2:0
Битовая глубина                          : 8 бит
Тип развёртки                            : Прогрессивная
Бит/(Пиксели*Кадры)                      : 0.238
Размер потока                            : 6,79 Гбайт (92%)
Заголовок                                : Release by mimok
Библиотека кодирования                   : x264 core 125 r2208 d9d2288
Настройки программы                      : cabac=1 / ref=6 / deblock=0:0:0 / analyse=0x3:0x133 / me=umh / subme=8 / psy=1 / psy_rd=1.00:0.15 / mixed_ref=1 / me_range=20 / chroma_me=1 / trellis=2 / 8x8dct=1 / cqm=0 / deadzone=21,11 / fast_pskip=0 / chroma_qp_offset=-3 / threads=6 / lookahead_threads=1 / sliced_threads=0 / nr=0 / decimate=0 / interlaced=0 / bluray_compat=0 / constrained_intra=0 / bframes=8 / b_pyramid=2 / b_adapt=2 / b_bias=0 / direct=1 / weightb=1 / open_gop=0 / weightp=2 / keyint=600 / keyint_min=59 / scenecut=40 / intra_refresh=0 / rc=crf / mbtree=0 / crf=17.0 / qcomp=0.63 / qpmin=10 / qpmax=51 / qpstep=4 / ip_ratio=1.40 / pb_ratio=1.30 / aq=1:1.20
Default                                  : Да
Forced                                   : Нет
Аудио
Идентификатор                            : 2
Формат                                   : AC-3
Формат/Информация                        : Audio Coding 3
Расширение режима                        : CM (complete main)
Параметр Endianness формата              : Big
Идентификатор кодека                     : A_AC3
Продолжительность                        : 1 ч. 38 м.
Вид битрейта                             : Постоянный
Битрейт                                  : 640 Кбит/сек
Каналы                                   : 6 каналов
Расположение каналов                     : Front: L C R, Side: L R, LFE
Частота                                  : 48,0 КГц
Битовая глубина                          : 16 бит
Метод сжатия                             : С потерями
Размер потока                            : 449 Мбайт (6%)
Заголовок                                : Лицензия!
Язык                                     : Russian
Default                                  : Да
Forced                                   : Нет
Текст #1
Идентификатор                            : 3
Формат                                   : UTF-8
Идентификатор кодека                     : S_TEXT/UTF8
Идентификатор кодека/Информация          : UTF-8 Plain Text
Заголовок                                : Full
Язык                                     : Russian
Default                                  : Да
Forced                                   : Нет
Текст #2
Идентификатор                            : 4
Формат                                   : UTF-8
Идентификатор кодека                     : S_TEXT/UTF8
Идентификатор кодека/Информация          : UTF-8 Plain Text
Заголовок                                : Full
Язык                                     : English
Default                                  : Нет
Forced                                   : Нет

Скринлист:

Скриншоты:

Яндекс.Метрика
Рейтинг@Mail.ru