Посейдон / Poseidon (2006) BDRip 720p | 60fps

 

Создавать темы 08-Янв-2015 10:23

Посейдон / Poseidon (2006) BDRip 720p | 60fps«Mayday...»- Год выхода: 2006
Жанр: Боевик, триллер, драма, приключения
Режиссер: Вольфганг Петерсен
В ролях:
Джош Лукас, Курт Рассел, Джасинда Бэрретт, Ричард Дрейфусс, Эмми Россам, Миа Маэстро, Майк Фогель, Кевин Диллон, Фредди Родригес...
Описание фильма:
Накануне новогоднего праздника в Атлантическом океане терпит бедствие шикарный круизный лайнер «Посейдон», который перевернула гигантская приливная волна. В то время, как сотни выживших пассажиров, выполняя указания капитана, остаются в главном танцзале и ждут помощи с берега, профессиональный картежник Дилан Джонс ищет свой путь к спасению...
Страна: США
Студия: Warner Bros. Pictures, Next Entertainment
Продолжительность: 01:38:14
Перевод: Дублированный (Лицензия)
Субтитры: Вшитые, отключаемые
Язык субтитров: Русский (Full), Английский (Full)
Дата мировой премьеры: 10 мая 2006
Дата российской премьеры: 22 июня 2006, «Каро-Премьер»
Дата выхода DVD релиза: 2 июня 2011, «CP-Digital»
Дата выхода Blu-Ray релиза: 6 апреля 2010, «Юниверсал Пикчерс Рус»
Файл
Формат: MKV
Кодек: MPEG-4 AVC/H.264
Качество: BDRip 720p
Видео: ~ 8592 Кбит/сек, 1280 x 536, 59.940 кадров/сек
Аудио: AC3 5.1, 48.0 KHz, 448 Кбит/сек - Русский

MediaInfo

Общее
Уникальный идентификатор                 : 233906695949582896396355763828419290629 (0xAFF8CA7E76F6C70FBA0DE3AF158D6605)
Полное имя                               : D:\Торренты\Poseidon 60fps.mkv
Формат                                   : Matroska
Версия формата                           : Version 2
Размер файла                             : 6,33 Гбайт
Продолжительность                        : 1 ч. 38 м.
Общий поток                              : 9224 Кбит/сек
Название фильма                          : Poseidon (2006) 1080p BD Remux
Дата кодирования                         : UTC 2014-12-29 15:32:09
Программа кодирования                    : mkvmerge v6.9.1 ('Blue Panther') 64bit built on Apr 18 2014 18:23:38
Библиотека кодирования                   : libebml v1.3.0 + libmatroska v1.4.1
Видео
Идентификатор                            : 1
Формат                                   : AVC
Формат/Информация                        : Advanced Video Codec
Профиль формата                          : [email protected]
Параметр CABAC формата                   : Да
Параметр ReFrames формата                : 6 кадров
Идентификатор кодека                     : V_MPEG4/ISO/AVC
Продолжительность                        : 1 ч. 38 м.
Битрейт                                  : 8592 Кбит/сек
Ширина                                   : 1280 пикселей
Высота                                   : 536 пикселей
Соотношение сторон                       : 2,40:1
Режим частоты кадров                     : Постоянный
Частота кадров                           : 59,880 кадров/сек
Частота кадров в оригинале               : 59,940 кадров/сек
Цветовое пространство                    : YUV
Субдискретизация насыщенности            : 4:2:0
Битовая глубина                          : 8 бит
Тип развёртки                            : Прогрессивная
Бит/(Пиксели*Кадры)                      : 0.209
Размер потока                            : 5,90 Гбайт (93%)
Заголовок                                : Release by mimok
Библиотека кодирования                   : x264 core 125 r2208 d9d2288
Настройки программы                      : cabac=1 / ref=6 / deblock=0:0:0 / analyse=0x3:0x133 / me=umh / subme=8 / psy=1 / psy_rd=1.00:0.15 / mixed_ref=1 / me_range=20 / chroma_me=1 / trellis=2 / 8x8dct=1 / cqm=0 / deadzone=21,11 / fast_pskip=0 / chroma_qp_offset=-3 / threads=6 / lookahead_threads=1 / sliced_threads=0 / nr=0 / decimate=0 / interlaced=0 / bluray_compat=0 / constrained_intra=0 / bframes=8 / b_pyramid=2 / b_adapt=2 / b_bias=0 / direct=1 / weightb=1 / open_gop=0 / weightp=2 / keyint=600 / keyint_min=59 / scenecut=40 / intra_refresh=0 / rc=crf / mbtree=0 / crf=18.0 / qcomp=0.63 / qpmin=10 / qpmax=51 / qpstep=4 / ip_ratio=1.40 / pb_ratio=1.30 / aq=1:1.20
Default                                  : Да
Forced                                   : Нет
Аудио
Идентификатор                            : 2
Формат                                   : AC-3
Формат/Информация                        : Audio Coding 3
Расширение режима                        : CM (complete main)
Параметр Endianness формата              : Big
Идентификатор кодека                     : A_AC3
Продолжительность                        : 1 ч. 38 м.
Вид битрейта                             : Постоянный
Битрейт                                  : 448 Кбит/сек
Каналы                                   : 6 каналов
Расположение каналов                     : Front: L C R, Side: L R, LFE
Частота                                  : 48,0 КГц
Битовая глубина                          : 16 бит
Метод сжатия                             : С потерями
Размер потока                            : 315 Мбайт (5%)
Заголовок                                : Dub
Язык                                     : Russian
Default                                  : Да
Forced                                   : Нет
Текст #1
Идентификатор                            : 3
Формат                                   : UTF-8
Идентификатор кодека                     : S_TEXT/UTF8
Идентификатор кодека/Информация          : UTF-8 Plain Text
Заголовок                                : Full
Язык                                     : Russian
Default                                  : Да
Forced                                   : Нет
Текст #2
Идентификатор                            : 4
Формат                                   : UTF-8
Идентификатор кодека                     : S_TEXT/UTF8
Идентификатор кодека/Информация          : UTF-8 Plain Text
Заголовок                                : Full
Язык                                     : English
Default                                  : Нет
Forced                                   : Нет

Скринлист:

Скриншоты:

Яндекс.Метрика
Рейтинг@Mail.ru