[ Сегодня на трекере фрилич! Идет свободное скачивание без начисления Download ]

(Classic Rock) Eagles - The Complete Greatest Hits (2CD) - 2003 [FLAC, tracks+.cue, lossless]

 

Создавать темы 08-Янв-2015 00:19

-Eagles / The Complete Greatest Hits (2CD)-- Год издания: 2003
Страна: USA
Жанр: Classic Rock
Продолжительность: 02:25:03-Лейбл издания: Warner Music Group
Тип альбома: Compilation
Страна-выпуска диска: Germany
Номер по каталогу: 8122 - 73731 -1/2
Формат: FLAC
Битрейт аудио: lossless
Тип рипа: tracks+.cue
Наличие сканов в содержимом раздачи: да

Трэклист

CD 1 / 01:13:27

01.Take It Easy (03:30)
02.Witchy Woman (04:11)
03.Peaceful Easy Feeling (04:16)
04.Desperado (03:33)
05.Tequila Sunrise (02:52)
06.Doolin' Dalton (03:26)
07.Already Gone (04:15)
08.The Best Of My Love (04:34)
09.James Dean (03:38)
10.Ol' 55 (04:22)
11.Midnight Flyer (03:58)
12.On The Border (04:22)
13.Lyin' Eyes (06:20)
14.One Of These Nights (04:50)
15.Take It To The Limit (04:47)
16.After The Trill Is Gone (03:56)
17.Hotel California (06:30)

CD 2 / 01:11:36

01.Life in the Fast Lane (04:45)
02.Wasted Time (04:54)
03.Victim of Love (04:10)
04.The Last Resort (07:28)
05.New Kid in Town (05:05)
06.Please Come Home for Christmas (02:58)
07.Heartache Tonight (04:25)
08.The Sad Cafe (05:33)
09.I Can't Tell You Why (04:53)
10.The Long Run (03:41)
11.In the City (03:44)
12.Those Shoes (04:56)
13.Seven Bridges Road [Live] (03:04)
14.Love Will Keep Us Alive (04:02)
15.Get Over It (03:30)
16.Hole in the World (04:19)
-

Лог создания рипа

CD 1

EAC extraction logfile from 7. July 2007, 16:07 for CD
Eagles / The Complete Greatest Hits - Disc 1
Used drive  : HL-DT-STDVDRRW GSA-H30L   Adapter: 0  ID: 1
Read mode   : Secure with NO C2, accurate stream, disable cache
Read offset correction : 102
Overread into Lead-In and Lead-Out : No
Used output format : C:\flac-1.1.4-win\bin\flac.exe   (User Defined Encoder)
320 kBit/s
Additional command line options : -6 -V -T "artist=%a" -T "title=%t" -T "album=%g" -T "date=%y" -T "tracknumber=%n" -T "genre=%m" -T comment="%e" -T "comment=EAC (Secure Mode)" %s
Other options      :
Fill up missing offset samples with silence : Yes
Delete leading and trailing silent blocks : No
Installed external ASPI interface
Track  1
Filename C:\My Music Box.;)\(01)-Take It Easy-Eagles-2003.wav
Pre-gap length  0:00:02.00
Peak level 99.8 %
Track quality 100.0 %
Test CRC A342CBB3
Copy CRC A342CBB3
Copy OK
Track  2
Filename C:\My Music Box.;)\(02)-Witchy Woman-Eagles-2003.wav
Peak level 99.8 %
Track quality 99.9 %
Test CRC 7B917FE1
Copy CRC 7B917FE1
Copy OK
Track  3
Filename C:\My Music Box.;)\(03)-Peaceful Easy Feeling-Eagles-2003.wav
Peak level 99.8 %
Track quality 100.0 %
Test CRC 9CA17BED
Copy CRC 9CA17BED
Copy OK
Track  4
Filename C:\My Music Box.;)\(04)-Desperado-Eagles-2003.wav
Peak level 99.8 %
Track quality 99.9 %
Test CRC BB45D4CD
Copy CRC BB45D4CD
Copy OK
Track  5
Filename C:\My Music Box.;)\(05)-Tequila Sunrise-Eagles-2003.wav
Peak level 99.8 %
Track quality 100.0 %
Test CRC 5FB85536
Copy CRC 5FB85536
Copy OK
Track  6
Filename C:\My Music Box.;)\(06)-Doolin' Dalton-Eagles-2003.wav
Peak level 99.8 %
Track quality 100.0 %
Test CRC EB18C109
Copy CRC EB18C109
Copy OK
Track  7
Filename C:\My Music Box.;)\(07)-Already Gone-Eagles-2003.wav
Peak level 99.8 %
Track quality 100.0 %
Test CRC 24E4B1AE
Copy CRC 24E4B1AE
Copy OK
Track  8
Filename C:\My Music Box.;)\(08)-The Best Of My Love-Eagles-2003.wav
Peak level 99.8 %
Track quality 100.0 %
Test CRC 2794595F
Copy CRC 2794595F
Copy OK
Track  9
Filename C:\My Music Box.;)\(09)-James Dean-Eagles-2003.wav
Peak level 99.8 %
Track quality 100.0 %
Test CRC C59F2534
Copy CRC C59F2534
Copy OK
Track 10
Filename C:\My Music Box.;)\(10)-Ol' 55-Eagles-2003.wav
Peak level 96.6 %
Track quality 100.0 %
Test CRC C4361048
Copy CRC C4361048
Copy OK
Track 11
Filename C:\My Music Box.;)\(11)-Midnight Flyer-Eagles-2003.wav
Peak level 99.8 %
Track quality 100.0 %
Test CRC E5EC1F65
Copy CRC E5EC1F65
Copy OK
Track 12
Filename C:\My Music Box.;)\(12)-On The Border-Eagles-2003.wav
Peak level 99.8 %
Track quality 100.0 %
Test CRC A36CBDD2
Copy CRC A36CBDD2
Copy OK
Track 13
Filename C:\My Music Box.;)\(13)-Lyin' Eyes-Eagles-2003.wav
Peak level 99.8 %
Track quality 99.9 %
Test CRC 639040E3
Copy CRC 639040E3
Copy OK
Track 14
Filename C:\My Music Box.;)\(14)-One Of These Nights-Eagles-2003.wav
Peak level 99.8 %
Track quality 100.0 %
Test CRC 54F47A3A
Copy CRC 54F47A3A
Copy OK
Track 15
Filename C:\My Music Box.;)\(15)-Take It To The Limit-Eagles-2003.wav
Peak level 99.8 %
Track quality 100.0 %
Test CRC 82684A6F
Copy CRC 82684A6F
Copy OK
Track 16
Filename C:\My Music Box.;)\(16)-After The Trill Is Gone-Eagles-2003.wav
Peak level 99.8 %
Track quality 100.0 %
Test CRC DABBC9B5
Copy CRC DABBC9B5
Copy OK
Track 17
Filename C:\My Music Box.;)\(17)-Hotel California-Eagles-2003.wav
Peak level 99.8 %
Track quality 100.0 %
Test CRC C7AB365B
Copy CRC C7AB365B
Copy OK
No errors occured
End of status report

CD 2

EAC extraction logfile from 11. July 2007, 10:42 for CD
Eagles / The Complete Greatest Hits - CD2
Used drive  : HL-DT-STDVDRRW GSA-H30L   Adapter: 0  ID: 1
Read mode   : Secure with NO C2, accurate stream, disable cache
Read offset correction : 102
Overread into Lead-In and Lead-Out : No
Used output format : C:\flac-1.1.4-win\bin\flac.exe   (User Defined Encoder)
320 kBit/s
Additional command line options : -6 -V -T "artist=%a" -T "title=%t" -T "album=%g" -T "date=%y" -T "tracknumber=%n" -T "genre=%m" -T comment="%e" -T "comment=EAC (Secure Mode)" %s
Other options      :
Fill up missing offset samples with silence : Yes
Delete leading and trailing silent blocks : No
Installed external ASPI interface
Track  1
Filename C:\My Music Box.;)\(01)-Life in the Fast Lane-Eagles-2003.wav
Pre-gap length  0:00:02.00
Peak level 99.8 %
Track quality 100.0 %
Test CRC 26FE53B5
Copy CRC 26FE53B5
Copy OK
Track  2
Filename C:\My Music Box.;)\(02)-Wasted Time-Eagles-2003.wav
Peak level 99.8 %
Track quality 100.0 %
Test CRC 4E6B927E
Copy CRC 4E6B927E
Copy OK
Track  3
Filename C:\My Music Box.;)\(03)-Victim of Love-Eagles-2003.wav
Peak level 96.6 %
Track quality 100.0 %
Test CRC B00C65DE
Copy CRC B00C65DE
Copy OK
Track  4
Filename C:\My Music Box.;)\(04)-The Last Resort-Eagles-2003.wav
Peak level 99.8 %
Track quality 100.0 %
Test CRC 5DA7F8EF
Copy CRC 5DA7F8EF
Copy OK
Track  5
Filename C:\My Music Box.;)\(05)-New Kid in Town-Eagles-2003.wav
Peak level 99.8 %
Track quality 99.9 %
Test CRC 352E4399
Copy CRC 352E4399
Copy OK
Track  6
Filename C:\My Music Box.;)\(06)-Please Come Home for Christmas-Eagles-2003.wav
Pre-gap length  0:00:01.65
Peak level 96.5 %
Track quality 100.0 %
Test CRC D717E149
Copy CRC D717E149
Copy OK
Track  7
Filename C:\My Music Box.;)\(07)-Heartache Tonight-Eagles-2003.wav
Peak level 99.8 %
Track quality 100.0 %
Test CRC 2825BA3D
Copy CRC 2825BA3D
Copy OK
Track  8
Filename C:\My Music Box.;)\(08)-The Sad Cafe-Eagles-2003.wav
Peak level 99.8 %
Track quality 100.0 %
Test CRC 49293A04
Copy CRC 49293A04
Copy OK
Track  9
Filename C:\My Music Box.;)\(09)-I Can't Tell You Why-Eagles-2003.wav
Peak level 99.8 %
Track quality 100.0 %
Test CRC DAFA43A6
Copy CRC DAFA43A6
Copy OK
Track 10
Filename C:\My Music Box.;)\(10)-The Long Run-Eagles-2003.wav
Peak level 99.8 %
Track quality 100.0 %
Test CRC 04FD2D5E
Copy CRC 04FD2D5E
Copy OK
Track 11
Filename C:\My Music Box.;)\(11)-In the City-Eagles-2003.wav
Peak level 99.8 %
Track quality 100.0 %
Test CRC 345B5FCD
Copy CRC 345B5FCD
Copy OK
Track 12
Filename C:\My Music Box.;)\(12)-Those Shoes-Eagles-2003.wav
Peak level 96.6 %
Track quality 100.0 %
Test CRC 0FF65D09
Copy CRC 0FF65D09
Copy OK
Track 13
Filename C:\My Music Box.;)\(13)-Seven Bridges Road [Live]-Eagles-2003.wav
Peak level 96.5 %
Track quality 100.0 %
Test CRC 6864B8C7
Copy CRC 6864B8C7
Copy OK
Track 14
Filename C:\My Music Box.;)\(14)-Love Will Keep Us Alive-Eagles-2003.wav
Peak level 99.8 %
Track quality 100.0 %
Test CRC E3FA5051
Copy CRC E3FA5051
Copy OK
Track 15
Filename C:\My Music Box.;)\(15)-Get Over It-Eagles-2003.wav
Peak level 99.8 %
Track quality 100.0 %
Test CRC 82450D44
Copy CRC 82450D44
Copy OK
Track 16
Filename C:\My Music Box.;)\(16)-Hole in the World-Eagles-2003.wav
Pre-gap length  0:00:01.27
Peak level 100.0 %
Track quality 100.0 %
Test CRC 813039BB
Copy CRC 813039BB
Copy OK
No errors occured
End of status report

Индексная карта (non-compilant .cue)

CD 1

REM GENRE Rock
REM DATE 2003
REM DISCID D4113711
REM COMMENT "ExactAudioCopy v0.95b4"
CATALOG 0081227373122
PERFORMER "Eagles"
TITLE "The Complete Greatest Hits - Disc 1"
FILE "(01)-Take It Easy-Eagles-2003.flac" WAVE
TRACK 01 AUDIO
TITLE "Take It Easy"
PERFORMER "Eagles"
ISRC USAS19900045
INDEX 01 00:00:00
FILE "(02)-Witchy Woman-Eagles-2003.flac" WAVE
TRACK 02 AUDIO
TITLE "Witchy Woman"
PERFORMER "Eagles"
ISRC USAS19900046
INDEX 01 00:00:00
FILE "(03)-Peaceful Easy Feeling-Eagles-2003.flac" WAVE
TRACK 03 AUDIO
TITLE "Peaceful Easy Feeling"
PERFORMER "Eagles"
ISRC USAS19900053
INDEX 01 00:00:00
FILE "(04)-Desperado-Eagles-2003.flac" WAVE
TRACK 04 AUDIO
TITLE "Desperado"
PERFORMER "Eagles"
ISRC USAS19900038
INDEX 01 00:00:00
FILE "(05)-Tequila Sunrise-Eagles-2003.flac" WAVE
TRACK 05 AUDIO
TITLE "Tequila Sunrise"
PERFORMER "Eagles"
ISRC USAS19900037
INDEX 01 00:00:00
FILE "(06)-Doolin' Dalton-Eagles-2003.flac" WAVE
TRACK 06 AUDIO
TITLE "Doolin' Dalton"
PERFORMER "Eagles"
ISRC USAS19900034
INDEX 01 00:00:00
FILE "(07)-Already Gone-Eagles-2003.flac" WAVE
TRACK 07 AUDIO
TITLE "Already Gone"
PERFORMER "Eagles"
ISRC USEE19900401
INDEX 01 00:00:00
FILE "(08)-The Best Of My Love-Eagles-2003.flac" WAVE
TRACK 08 AUDIO
TITLE "The Best Of My Love"
PERFORMER "Eagles"
ISRC USEE19900410
INDEX 01 00:00:00
FILE "(09)-James Dean-Eagles-2003.flac" WAVE
TRACK 09 AUDIO
TITLE "James Dean"
PERFORMER "Eagles"
ISRC USEE19900406
INDEX 01 00:00:00
FILE "(10)-Ol' 55-Eagles-2003.flac" WAVE
TRACK 10 AUDIO
TITLE "Ol' 55"
PERFORMER "Eagles"
ISRC USEE19900407
INDEX 01 00:00:00
FILE "(11)-Midnight Flyer-Eagles-2003.flac" WAVE
TRACK 11 AUDIO
TITLE "Midnight Flyer"
PERFORMER "Eagles"
ISRC USEE19900403
INDEX 01 00:00:00
FILE "(12)-On The Border-Eagles-2003.flac" WAVE
TRACK 12 AUDIO
TITLE "On The Border"
PERFORMER "Eagles"
ISRC USEE19900405
INDEX 01 00:00:00
FILE "(13)-Lyin' Eyes-Eagles-2003.flac" WAVE
TRACK 13 AUDIO
TITLE "Lyin' Eyes"
PERFORMER "Eagles"
ISRC USEE19900415
INDEX 01 00:00:00
FILE "(14)-One Of These Nights-Eagles-2003.flac" WAVE
TRACK 14 AUDIO
TITLE "One Of These Nights"
PERFORMER "Eagles"
ISRC USEE19900411
INDEX 01 00:00:00
FILE "(15)-Take It To The Limit-Eagles-2003.flac" WAVE
TRACK 15 AUDIO
TITLE "Take It To The Limit"
PERFORMER "Eagles"
ISRC USEE19900416
INDEX 01 00:00:00
FILE "(16)-After The Trill Is Gone-Eagles-2003.flac" WAVE
TRACK 16 AUDIO
TITLE "After The Trill Is Gone"
PERFORMER "Eagles"
ISRC USEE19900418
INDEX 01 00:00:00
FILE "(17)-Hotel California-Eagles-2003.flac" WAVE
TRACK 17 AUDIO
TITLE "Hotel California"
PERFORMER "Eagles"
ISRC USEE19900323
INDEX 01 00:00:00

CD 2

REM GENRE "Classic Rock"
REM DATE 2003
REM DISCID E810C810
REM COMMENT "ExactAudioCopy v0.95b4"
CATALOG 0081227373122
PERFORMER "Eagles"
TITLE "The Complete Greatest Hits - CD2"
FILE "(01)-Life in the Fast Lane-Eagles-2003.flac" WAVE
TRACK 01 AUDIO
TITLE "Life in the Fast Lane"
PERFORMER "Eagles"
ISRC USEE19900325
INDEX 01 00:00:00
FILE "(02)-Wasted Time-Eagles-2003.flac" WAVE
TRACK 02 AUDIO
TITLE "Wasted Time"
PERFORMER "Eagles"
ISRC USEE19900326
INDEX 01 00:00:00
FILE "(03)-Victim of Love-Eagles-2003.flac" WAVE
TRACK 03 AUDIO
TITLE "Victim of Love"
PERFORMER "Eagles"
ISRC USEE19900328
INDEX 01 00:00:00
FILE "(04)-The Last Resort-Eagles-2003.flac" WAVE
TRACK 04 AUDIO
TITLE "The Last Resort"
PERFORMER "Eagles"
ISRC USEE19900331
INDEX 01 00:00:00
FILE "(05)-New Kid in Town-Eagles-2003.flac" WAVE
TRACK 05 AUDIO
TITLE "New Kid in Town"
PERFORMER "Eagles"
ISRC USEE19900324
INDEX 01 00:00:00
TRACK 06 AUDIO
TITLE "Please Come Home for Christmas"
PERFORMER "Eagles"
ISRC USEE10340006
INDEX 00 05:03:73
FILE "(06)-Please Come Home for Christmas-Eagles-2003.flac" WAVE
INDEX 01 00:00:00
FILE "(07)-Heartache Tonight-Eagles-2003.flac" WAVE
TRACK 07 AUDIO
TITLE "Heartache Tonight"
PERFORMER "Eagles"
ISRC USEE19900369
INDEX 01 00:00:00
FILE "(08)-The Sad Cafe-Eagles-2003.flac" WAVE
TRACK 08 AUDIO
TITLE "The Sad Cafe"
PERFORMER "Eagles"
ISRC USEE19900373
INDEX 01 00:00:00
FILE "(09)-I Can't Tell You Why-Eagles-2003.flac" WAVE
TRACK 09 AUDIO
TITLE "I Can't Tell You Why"
PERFORMER "Eagles"
ISRC USEE19900365
INDEX 01 00:00:00
FILE "(10)-The Long Run-Eagles-2003.flac" WAVE
TRACK 10 AUDIO
TITLE "The Long Run"
PERFORMER "Eagles"
ISRC USEE19900364
INDEX 01 00:00:00
FILE "(11)-In the City-Eagles-2003.flac" WAVE
TRACK 11 AUDIO
TITLE "In the City"
PERFORMER "Eagles"
ISRC USEE19900366
INDEX 01 00:00:00
FILE "(12)-Those Shoes-Eagles-2003.flac" WAVE
TRACK 12 AUDIO
TITLE "Those Shoes"
PERFORMER "Eagles"
ISRC USEE19900370
INDEX 01 00:00:00
FILE "(13)-Seven Bridges Road [Live]-Eagles-2003.flac" WAVE
TRACK 13 AUDIO
TITLE "Seven Bridges Road [Live]"
PERFORMER "Eagles"
ISRC USEE19900355
INDEX 01 00:00:00
FILE "(14)-Love Will Keep Us Alive-Eagles-2003.flac" WAVE
TRACK 14 AUDIO
TITLE "Love Will Keep Us Alive"
PERFORMER "Eagles"
ISRC Y30000001933
INDEX 01 00:00:00
FILE "(15)-Get Over It-Eagles-2003.flac" WAVE
TRACK 15 AUDIO
TITLE "Get Over It"
PERFORMER "Eagles"
ISRC Y30000001934
INDEX 01 00:00:00
TRACK 16 AUDIO
TITLE "Hole in the World"
PERFORMER "Eagles"
ISRC Y99980001998
INDEX 00 03:29:26
FILE "(16)-Hole in the World-Eagles-2003.flac" WAVE
INDEX 01 00:00:00
--
Яндекс.Метрика
Рейтинг@Mail.ru