(Pop) Jessica Jay - My Heart Is Back - 2007, FLAC (tracks), lossless

 

Создавать темы 07-Янв-2015 21:34

-Jessica Jay - My Heart Is Back- Жанр: Pop
Страна-производитель диска: Philippine
Год издания: 2007
Издатель (лейбл): Universal Records
Номер по каталогу: DBCD-216
Страна: Italy
Аудиокодек: FLAC (*.flac)
Тип рипа: tracks
Битрейт аудио: lossless
Источник (релизер): en-vogue
Наличие сканов в содержимом раздачи: да-Треклист:
01. Chichiquita [Full Version]
02. Lady Rose
03. Love Is Like The Moon
04. Chilly Cha Cha [Comeback Mix]
05. Cha Cha Cha
06. My Heart (feat. Jon Farina)
07. My Chiu Chiu Thai Boy
08. Broken Hearted Woman 2007 [Coyote Mix]
09. Dance Little Lady Dance
10. To Love Somebody
11. More Than I Can Say
Bonus Remixes
12. Chichiquita [Def-In-Mix]
13. Chilly Cha Cha [Papaya Mix]
14. My Chiu Chiu Thai Boy [Radio Retro Mix]
15. Broken Hearted Woman 2007 [DJ Jay Mix]
16. Broken Hearted Woman 2007 [Acoustic Mix]

Лог создания рипа

EAC extraction logfile from 18. February 2013, 23:56
Jessica Jay / My Heart Is Back
Used drive  : HL-DT-ST DVDRAM GSA-T20N   Adapter: 1  ID: 0
Read mode               : SecureUtilize accurate stream : YesDefeat audio cache      : YesMake use of C2 pointers : No
Read offset correction                      : 667Overread into Lead-In and Lead-Out          : NoFill up missing offset samples with silence : YesDelete leading and trailing silent blocks   : NoNull samples used in CRC calculations       : YesUsed interface                              : Native Win32 interface for Win NT & 2000Gap handling                                : Appended to previous track
Used output format : Internal WAV RoutinesSample format      : 44.100 Hz; 16 Bit; Stereo
TOC of the extracted CD
Track |   Start  |  Length  | Start sector | End sector    ---------------------------------------------------------        1  |  0:00.00 |  5:03.48 |         0    |    22772        2  |  5:03.48 |  3:49.04 |     22773    |    39951        3  |  8:52.52 |  3:50.49 |     39952    |    57250        4  | 12:43.26 |  4:51.69 |     57251    |    79144        5  | 17:35.20 |  4:12.69 |     79145    |    98113        6  | 21:48.14 |  3:33.70 |     98114    |   114158        7  | 25:22.09 |  4:20.35 |    114159    |   133693        8  | 29:42.44 |  3:17.05 |    133694    |   148473        9  | 32:59.49 |  4:03.66 |    148474    |   166764       10  | 37:03.40 |  3:47.49 |    166765    |   183838       11  | 40:51.14 |  4:17.18 |    183839    |   203131       12  | 45:08.32 |  5:57.62 |    203132    |   229968       13  | 51:06.19 |  4:51.01 |    229969    |   251794       14  | 55:57.20 |  2:47.30 |    251795    |   264349       15  | 58:44.50 |  4:29.10 |    264350    |   284534       16  | 63:13.60 |  4:01.42 |    284535    |   302651
Track  1
Filename C:\Users\Администратор\Music\Jessica Jay\2007 - My Heart Is Back\01. Chichiquitta [Full Version].wav
Pre-gap length  0:00:02.00
Peak level 99.9 %     Track quality 100.0 %     Test CRC 0083BD15     Copy CRC 0083BD15     Track not present in AccurateRip database     Copy OK
Track  2
Filename C:\Users\Администратор\Music\Jessica Jay\2007 - My Heart Is Back\02. Lady Rose.wav
Peak level 99.9 %     Track quality 100.0 %     Test CRC 65710160     Copy CRC 65710160     Track not present in AccurateRip database     Copy OK
Track  3
Filename C:\Users\Администратор\Music\Jessica Jay\2007 - My Heart Is Back\03. Love Is Like The Moon.wav
Peak level 99.9 %     Track quality 100.0 %     Test CRC 52D0BAFE     Copy CRC 52D0BAFE     Track not present in AccurateRip database     Copy OK
Track  4
Filename C:\Users\Администратор\Music\Jessica Jay\2007 - My Heart Is Back\04. Chilly Cha Cha [Comeback Mix].wav
Peak level 99.9 %     Track quality 100.0 %     Test CRC C8322F16     Copy CRC C8322F16     Track not present in AccurateRip database     Copy OK
Track  5
Filename C:\Users\Администратор\Music\Jessica Jay\2007 - My Heart Is Back\05. Cha Cha Cha.wav
Peak level 99.9 %     Track quality 100.0 %     Test CRC 8D044F58     Copy CRC 8D044F58     Track not present in AccurateRip database     Copy OK
Track  6
Filename C:\Users\Администратор\Music\Jessica Jay\2007 - My Heart Is Back\06. My Heart (feat. Jon Farina).wav
Peak level 99.9 %     Track quality 100.0 %     Test CRC 420F7223     Copy CRC 420F7223     Track not present in AccurateRip database     Copy OK
Track  7
Filename C:\Users\Администратор\Music\Jessica Jay\2007 - My Heart Is Back\07. My Chiw Chiw Thai Boy.wav
Peak level 99.9 %     Track quality 100.0 %     Test CRC AE2791CF     Copy CRC AE2791CF     Track not present in AccurateRip database     Copy OK
Track  8
Filename C:\Users\Администратор\Music\Jessica Jay\2007 - My Heart Is Back\08. Broken Hearted Woman 2007 [Coyote Mix].wav
Peak level 99.9 %     Track quality 100.0 %     Test CRC CBA230E7     Copy CRC CBA230E7     Track not present in AccurateRip database     Copy OK
Track  9
Filename C:\Users\Администратор\Music\Jessica Jay\2007 - My Heart Is Back\09. Dance Little Lady Dance.wav
Peak level 99.9 %     Track quality 100.0 %     Test CRC 40165C0C     Copy CRC 40165C0C     Track not present in AccurateRip database     Copy OK
Track 10
Filename C:\Users\Администратор\Music\Jessica Jay\2007 - My Heart Is Back\10. To Love Somebody.wav
Peak level 99.9 %     Track quality 100.0 %     Test CRC 7E3DAAAC     Copy CRC 7E3DAAAC     Track not present in AccurateRip database     Copy OK
Track 11
Filename C:\Users\Администратор\Music\Jessica Jay\2007 - My Heart Is Back\11. More Than I Can Say.wav
Peak level 99.9 %     Track quality 100.0 %     Test CRC F7338D16     Copy CRC F7338D16     Track not present in AccurateRip database     Copy OK
Track 12
Filename C:\Users\Администратор\Music\Jessica Jay\2007 - My Heart Is Back\12. Chichiquitta [Def-In-Mix].wav
Peak level 100.0 %     Track quality 100.0 %     Test CRC E44A15F6     Copy CRC E44A15F6     Track not present in AccurateRip database     Copy OK
Track 13
Filename C:\Users\Администратор\Music\Jessica Jay\2007 - My Heart Is Back\13. Chilly Cha Cha [Papaya Mix].wav
Peak level 99.9 %     Track quality 100.0 %     Test CRC DA4A0DB0     Copy CRC DA4A0DB0     Track not present in AccurateRip database     Copy OK
Track 14
Filename C:\Users\Администратор\Music\Jessica Jay\2007 - My Heart Is Back\14. My Chiw Chiw Thai Boy [Radio Retro Mix].wav
Peak level 99.9 %     Track quality 100.0 %     Test CRC F36CC227     Copy CRC F36CC227     Track not present in AccurateRip database     Copy OK
Track 15
Filename C:\Users\Администратор\Music\Jessica Jay\2007 - My Heart Is Back\15. Broken Hearted Woman 2007 [DJ Jay Mix].wav
Peak level 99.9 %     Track quality 100.0 %     Test CRC 6EDA1D16     Copy CRC 6EDA1D16     Track not present in AccurateRip database     Copy OK
Track 16
Filename C:\Users\Администратор\Music\Jessica Jay\2007 - My Heart Is Back\16. Broken Hearted Woman 2007 [Acoustic Mix].wav
Peak level 99.9 %     Track quality 100.0 %     Test CRC 9773389A     Copy CRC 9773389A     Track not present in AccurateRip database     Copy OK
None of the tracks are present in the AccurateRip database
No errors occurred
End of status report
-

Создавать темы 18-Апр-2015 11:05 (спустя 3 месяца 10 дней)

many thanks for sharing flac music!!!!
Яндекс.Метрика
Рейтинг@Mail.ru