Виктор Цой и группа Кино - Лучшее (2010) APE

 

Создавать темы 07-Янв-2015 18:22

-Виктор Цой и группа Кино - Лучшее- Год: 2010
Жанр: Rock
Продолжительность: 04:55:00
Формат/Кодек: APE
Битрейт аудио: lossless-Треклист:-CD1
01 Когда-то ты был битником
02 Время есть, а денег нет
03 Просто хочешь ты знать
04 Алюминиевые огурцы
05 Восьмикласница
06 Электричка
07 Бездельник
08 Бездельник 2
09 Солнечные дни
10 Мои друзья
11 На кухне
12 Без десяти
13 Пора
14 Камчатка
15 Троллейбус
16 Каждую ночь
17 Хочу быть с тобой
18 Я иду по улице
19 Транквилизатор
20 Прогулка романтика
21 Генерал
22 Дождь для нас

Лог создания рипа

Exact Audio Copy V0.99 prebeta 5 from 4. May 2009
Отчёт EAC об извлечении, выполненном 21. июня 2012, 16:55
Кино / Лучшее (CD1)
Дисковод: ASUS    DRW-2014L1T   Adapter: 1  ID: 0
Режим чтения                 : Достоверность
Использование точного потока : Да
Отключение кэша аудио        : Да
Использование указателей C2  : Нет
Коррекция смещения при чтении                     : 6
Способность читать области Lead-in и Lead-out     : Нет
Заполнение пропущенных сэмплов тишиной            : Да
Удаление блоков с тишиной в начале и конце        : Нет
При вычислениях CRC использовались нулевые сэмплы : Да
Интерфейс                                         : Установленный внешний ASPI-интерфейс
Выходной формат : Внутренние WAV-операции
Формат сэмплов  : 44.100 Гц; 16 бит; стерео
TOC извлечённого CD
     Трек |   Старт  | Длительность | Начальный сектор | Конечный сектор
    ---------------------------------------------------------------------
       1  |  0:00.00 |    3:43.13   |           0      |      16737
       2  |  3:43.13 |    4:12.12   |       16738      |      35649
       3  |  7:55.25 |    3:30.18   |       35650      |      51417
       4  | 11:25.43 |    2:58.57   |       51418      |      64824
       5  | 14:24.25 |    2:48.30   |       64825      |      77454
       6  | 17:12.55 |    2:39.55   |       77455      |      89434
       7  | 19:52.35 |    3:15.55   |       89435      |     104114
       8  | 23:08.15 |    3:08.00   |      104115      |     118214
       9  | 26:16.15 |    3:15.05   |      118215      |     132844
      10  | 29:31.20 |    4:29.35   |      132845      |     153054
      11  | 34:00.55 |    2:58.70   |      153055      |     166474
      12  | 36:59.50 |    2:07.55   |      166475      |     176054
      13  | 39:07.30 |    1:49.30   |      176055      |     184259
      14  | 40:56.60 |    2:55.60   |      184260      |     197444
      15  | 43:52.45 |    2:27.38   |      197445      |     208507
      16  | 46:20.08 |    3:02.40   |      208508      |     222197
      17  | 49:22.48 |    2:32.00   |      222198      |     233597
      18  | 51:54.48 |    2:02.62   |      233598      |     242809
      19  | 53:57.35 |    5:38.08   |      242810      |     268167
      20  | 59:35.43 |    3:30.60   |      268168      |     283977
      21  | 63:06.28 |    3:31.40   |      283978      |     299842
      22  | 66:37.68 |    3:22.38   |      299843      |     315030
Характеристики диапазона извлечения и сообщения об ошибках
Выбранный диапазон
     Имя файла C:\Documents and Settings\Александр\Мои документы\Моя музыка\Exact Audio Copy\Кино - Лучшее (CD1).wav
     Пиковый уровень 100.0 %
     Качество диапазона 100.0 %
     CRC теста 11CD10CD
     CRC копии 11CD10CD
     Копирование... OK
Ошибок не произошло
Конец отчёта

CD2

01 Это не любовь
02 Уходи
03 Видели ночь
04 Проснись это любовь
05 Весна
06 Ты выглядишь так несовременно
07 Фильмы
08 Верь мне
09 Твой номер
10 Город
11 Танец
12 Музыка волн
13 Игра
14 Дети проходных дворов
15 Жизнь в стеклах
16 Я объявляю свой дом
17 Саша
18 Ночь
19 Разреши мне

Лог создания рипа

Exact Audio Copy V0.99 prebeta 5 from 4. May 2009
Отчёт EAC об извлечении, выполненном 19. июня 2012, 20:13
Кино / Лучшее (CD2)
Дисковод: ASUS    DRW-2014L1T   Adapter: 1  ID: 0
Режим чтения                 : Достоверность
Использование точного потока : Да
Отключение кэша аудио        : Да
Использование указателей C2  : Нет
Коррекция смещения при чтении                     : 6
Способность читать области Lead-in и Lead-out     : Нет
Заполнение пропущенных сэмплов тишиной            : Да
Удаление блоков с тишиной в начале и конце        : Нет
При вычислениях CRC использовались нулевые сэмплы : Да
Интерфейс                                         : Установленный внешний ASPI-интерфейс
Выходной формат : Внутренние WAV-операции
Формат сэмплов  : 44.100 Гц; 16 бит; стерео
TOC извлечённого CD
     Трек |   Старт  | Длительность | Начальный сектор | Конечный сектор
    ---------------------------------------------------------------------
       1  |  0:00.00 |    3:31.15   |           0      |      15839
       2  |  3:31.15 |    4:39.40   |       15840      |      36804
       3  |  8:10.55 |    3:21.35   |       36805      |      51914
       4  | 11:32.15 |    3:34.20   |       51915      |      67984
       5  | 15:06.35 |    2:01.65   |       67985      |      77124
       6  | 17:08.25 |    3:51.63   |       77125      |      94512
       7  | 21:00.13 |    5:03.65   |       94513      |     117302
       8  | 26:04.03 |    5:35.62   |      117303      |     142489
       9  | 31:39.65 |    3:35.67   |      142490      |     158681
      10  | 35:15.57 |    3:48.22   |      158682      |     175803
      11  | 39:04.04 |    4:39.13   |      175804      |     196741
      12  | 43:43.17 |    4:06.20   |      196742      |     215211
      13  | 47:49.37 |    5:05.20   |      215212      |     238106
      14  | 52:54.57 |    1:48.13   |      238107      |     246219
      15  | 54:42.70 |    3:28.13   |      246220      |     261832
      16  | 58:11.08 |    2:25.35   |      261833      |     272742
      17  | 60:36.43 |    3:19.20   |      272743      |     287687
      18  | 63:55.63 |    5:33.50   |      287688      |     312712
      19  | 69:29.38 |    4:07.60   |      312713      |     331297
Характеристики диапазона извлечения и сообщения об ошибках
Выбранный диапазон
     Имя файла C:\Documents and Settings\Александр\Мои документы\Моя музыка\Exact Audio Copy\Кино - Лучшее (CD2).wav
     Пиковый уровень 100.0 %
     Качество диапазона 100.0 %
     CRC теста 9F311E80
     CRC копии 9F311E80
     Копирование... OK
Ошибок не произошло
Конец отчёта

CD3

01 Группа крови
02 Перемен
03 Последний герой
04 Попробуй спеть вместе со мной
05 Дальше действовать будем мы
06 Мы хотим танцевать
07 Звёзды останутся здесь
08 Закрой за мной дверь я ухожу
09 Мама мы все сошли с ума
10 Спокойная ночь
11 В наших глазах
12 Война
13 Место для шага вперёд
14 Бошентунмай
15 Мама анархия
16 Прохожий
17 Легенда

Лог создания рипа

Exact Audio Copy V0.99 prebeta 5 from 4. May 2009
Отчёт EAC об извлечении, выполненном 5. июня 2012, 16:21
Кино / Лучшее (CD3)
Дисковод: ASUS    DRW-2014L1T   Adapter: 1  ID: 0
Режим чтения                 : Достоверность
Использование точного потока : Да
Отключение кэша аудио        : Да
Использование указателей C2  : Нет
Коррекция смещения при чтении                     : 6
Способность читать области Lead-in и Lead-out     : Нет
Заполнение пропущенных сэмплов тишиной            : Да
Удаление блоков с тишиной в начале и конце        : Нет
При вычислениях CRC использовались нулевые сэмплы : Да
Интерфейс                                         : Установленный внешний ASPI-интерфейс
Выходной формат : Внутренние WAV-операции
Формат сэмплов  : 44.100 Гц; 16 бит; стерео
TOC извлечённого CD
     Трек |   Старт  | Длительность | Начальный сектор | Конечный сектор
    ---------------------------------------------------------------------
       1  |  0:00.00 |    4:49.10   |           0      |      21684
       2  |  4:49.10 |    5:00.42   |       21685      |      44226
       3  |  9:49.52 |    3:08.45   |       44227      |      58371
       4  | 12:58.22 |    4:38.07   |       58372      |      79228
       5  | 17:36.29 |    3:58.60   |       79229      |      97138
       6  | 21:35.14 |    4:03.38   |       97139      |     115401
       7  | 25:38.52 |    3:42.20   |      115402      |     132071
       8  | 29:20.72 |    4:18.25   |      132072      |     151446
       9  | 33:39.22 |    4:09.67   |      151447      |     170188
      10  | 37:49.14 |    6:10.00   |      170189      |     197938
      11  | 43:59.14 |    3:36.55   |      197939      |     214193
      12  | 47:35.69 |    4:06.53   |      214194      |     232696
      13  | 51:42.47 |    3:43.25   |      232697      |     249446
      14  | 55:25.72 |    4:11.33   |      249447      |     268304
      15  | 59:37.30 |    2:49.52   |      268305      |     281031
      16  | 62:27.07 |    3:42.08   |      281032      |     297689
      17  | 66:09.15 |    4:10.25   |      297690      |     316464
Характеристики диапазона извлечения и сообщения об ошибках
Выбранный диапазон
     Имя файла C:\Documents and Settings\Александр\Мои документы\Моя музыка\Exact Audio Copy\Кино - Лучшее (CD3).wav
     Пиковый уровень 100.0 %
     Качество диапазона 99.9 %
     CRC теста C9DD9FBE
     CRC копии C9DD9FBE
     Копирование... OK
Ошибок не произошло
Конец отчёта

CD4

01 Звезда по имени солнце
02 Кончится лето
03 Красно-жёлтые дни
04 Пачка сигарет
05 Следи за собой
06 Песня без слов
07 Кукушка
08 Нам с тобой
09 Печаль
10 Звезда
11 Апрель
12 Невесёлая песня
13 Когда твоя девушка больна
14 Муравейник
15 Стук
16 Сказка

Лог создания рипа

Exact Audio Copy V0.99 prebeta 5 from 4. May 2009
Отчёт EAC об извлечении, выполненном 5. июня 2012, 17:23
Кино / Лучшее (CD4)
Дисковод: ASUS    DRW-2014L1T   Adapter: 1  ID: 0
Режим чтения                 : Достоверность
Использование точного потока : Да
Отключение кэша аудио        : Да
Использование указателей C2  : Нет
Коррекция смещения при чтении                     : 6
Способность читать области Lead-in и Lead-out     : Нет
Заполнение пропущенных сэмплов тишиной            : Да
Удаление блоков с тишиной в начале и конце        : Нет
При вычислениях CRC использовались нулевые сэмплы : Да
Интерфейс                                         : Установленный внешний ASPI-интерфейс
Выходной формат : Внутренние WAV-операции
Формат сэмплов  : 44.100 Гц; 16 бит; стерео
TOC извлечённого CD
     Трек |   Старт  | Длительность | Начальный сектор | Конечный сектор
    ---------------------------------------------------------------------
       1  |  0:00.00 |    3:45.50   |           0      |      16924
       2  |  3:45.50 |    5:55.22   |       16925      |      43571
       3  |  9:40.72 |    5:50.25   |       43572      |      69846
       4  | 15:31.22 |    4:28.00   |       69847      |      89946
       5  | 19:59.22 |    4:58.52   |       89947      |     112348
       6  | 24:57.74 |    5:07.37   |      112349      |     135410
       7  | 30:05.36 |    6:39.72   |      135411      |     165407
       8  | 36:45.33 |    4:49.68   |      165408      |     187150
       9  | 41:35.26 |    5:32.00   |      187151      |     212050
      10  | 47:07.26 |    4:32.20   |      212051      |     232470
      11  | 51:39.46 |    4:38.00   |      232471      |     253320
      12  | 56:17.46 |    4:21.25   |      253321      |     272920
      13  | 60:38.71 |    4:21.23   |      272921      |     292518
      14  | 65:00.19 |    5:15.74   |      292519      |     316217
      15  | 70:16.18 |    3:47.48   |      316218      |     333290
      16  | 74:03.66 |    5:53.67   |      333291      |     359832
Характеристики диапазона извлечения и сообщения об ошибках
Выбранный диапазон
     Имя файла C:\Documents and Settings\Александр\Мои документы\Моя музыка\Exact Audio Copy\Кино - Лучшее (CD4).wav
     Пиковый уровень 100.0 %
     Качество диапазона 100.0 %
     CRC теста 321FF9C7
     CRC копии 321FF9C7
     Копирование... OK
Ошибок не произошло
Конец отчёта
-Сборник лучших песен группы Кино-
Яндекс.Метрика
Рейтинг@Mail.ru