Три богатыря: Ход конем (2014) BDRip 720p от HDClub | Лицензия

 

Создавать темы 07-Янв-2015 16:21

-Три богатыря: Ход конем- Информация о фильме
Название: Три богатыря: Ход конем
Год выхода: 2014
Жанр: мультфильм, комедия, приключения
Режиссер: Константин Феоктистов
Роли озвучивали: Дмитрий Нагиев, Наргиз Закирова, Гоша Куценко, Сергей Маковецкий, Дмитрий Быковский-Ромашов, Валерий Соловьев, Олег Куликович, Дмитрий Высоцкий
О фильме:
Придворный конь Гай Юлий Цезарь на свою беду подслушивает разговор бояр и узнает о заговоре против князя. Что же делать? Защитить-то князя некому! Богатыри далеко — ловят разбойника Потаню, Горыныч в отпуске, войско на учениях… Но если плохие парни собираются захватить мир, то кому-то же надо его спасти? Кто же он, настоящий герой, который придет на помощь? Конечно, конь Юлий! Настоящий стратег и «великий комбинатор». Он непременно всех спасет, а если не спасет, то хотя бы постарается. Главное, чтобы операция по спасению мира не обернулась полной катастрофой.

Релиз:
Страна: Россия
Студия: Кинокомпания CTB, Анимационная студия Мельница
Продолжительность: 01:14:42
Перевод: Оригинальный
Файл
Формат: Matroska
Источник: Три богатыря: Ход конем (2014) Blu-ray 1080p AVC LPCM 5.1
Видео: 1280x694 at 24.000 fps (True24p), [email protected], 2pass, ~5877 kbps avg
Аудио: Russian: 48 kHz, DTS, 3/2 (L,C,R,l,r) + LFE ch, ~1509.00 kbps avg
Субтитры: нет

MI

General
Unique ID : 216400342954040770385346280319279704181 (0xA2CD30A6ED00B5F8A9CDE19F32042875)
Complete name : Tri.Bogatirya.Hod.Konem.2014.720p.BDRip.Rus.HDClub.mkv
Format : Matroska
Format version : Version 2
File size : 3.85 GiB
Duration : 1h 14mn
Overall bit rate : 7 386 Kbps
Movie name : Release for HDClub
Encoded date : UTC 2015-02-24 00:31:18
Writing application : mkvmerge v7.6.0 ('Garden of Dreams') 64bit built on Feb 8 2015 13:04:34
Writing library : libebml v1.3.1 + libmatroska v1.4.2
Video
ID : 1
Format : AVC
Format/Info : Advanced Video Codec
Format profile : [email protected]
Format settings, CABAC : Yes
Format settings, ReFrames : 9 frames
Codec ID : V_MPEG4/ISO/AVC
Duration : 1h 14mn
Bit rate : 5 877 Kbps
Width : 1 280 pixels
Height : 694 pixels
Display aspect ratio : 1.85:1
Frame rate mode : Constant
Frame rate : 24.000 fps
Color space : YUV
Chroma subsampling : 4:2:0
Bit depth : 8 bits
Scan type : Progressive
Bits/(Pixel*Frame) : 0.276
Stream size : 2.99 GiB (78%)
Title : Tri.Bogatirya.Hod.Konem.2014.720p.BDRip.Rus.HDClub
Writing library : x264 core 142 r2431+42 c69a006 tMod [[email protected] X86_64]
Encoding settings : cabac=1 / ref=9 / deblock=1:-3:-3 / analyse=0x3:0x133 / me=umh / subme=11 / psy=1 / fade_compensate=0.00 / psy_rd=1.00:0.00 / mixed_ref=1 / me_range=48 / chroma_me=1 / trellis=2 / 8x8dct=1 / cqm=0 / deadzone=21,11 / fast_pskip=0 / chroma_qp_offset=-2 / threads=12 / lookahead_threads=2 / sliced_threads=0 / nr=0 / decimate=0 / interlaced=0 / bluray_compat=0 / constrained_intra=0 / fgo=0 / bframes=8 / b_pyramid=2 / b_adapt=2 / b_bias=0 / direct=3 / weightb=1 / open_gop=0 / weightp=2 / keyint=240 / keyint_min=24 / scenecut=40 / intra_refresh=0 / rc_lookahead=60 / rc=2pass / mbtree=0 / bitrate=5877 / ratetol=1.0 / qcomp=0.60 / qpmin=0:0:0 / qpmax=69:69:69 / qpstep=4 / cplxblur=20.0 / qblur=0.5 / vbv_maxrate=50000 / vbv_bufsize=62500 / nal_hrd=none / filler=0 / ip_ratio=1.35 / pb_ratio=1.25 / aq=4:0.80 / aq-sensitivity=10.00 / aq-factor=1.00:1.00:1.00 / aq2=0 / aq3=0
Language : Russian
Default : Yes
Forced : No
Audio
ID : 2
Format : DTS
Format/Info : Digital Theater Systems
Mode : 16
Format settings, Endianness : Big
Codec ID : A_DTS
Duration : 1h 14mn
Bit rate mode : Constant
Bit rate : 1 509 Kbps
Channel(s) : 6 channels
Channel positions : Front: L C R, Side: L R, LFE
Sampling rate : 48.0 KHz
Bit depth : 24 bits
Compression mode : Lossy
Stream size : 806 MiB (20%)
Title : DTS 5.1 @ 1509 kbps - Original
Language : Russian
Default : Yes
Forced : No
Menu
00:00:00.000 : ru:Chapter 1
00:09:15.916 : ru:Chapter 2
00:18:48.000 : ru:Chapter 3
00:27:35.750 : ru:Chapter 4
00:37:23.791 : ru:Chapter 5
00:47:10.083 : ru:Chapter 6
00:54:14.791 : ru:Chapter 7
01:03:36.416 : ru:Chapter 8
-

Скриншоты

-
Яндекс.Метрика
Рейтинг@Mail.ru